Шоссе смерти / Highwaymen (Роберт Хармон / Robert Harmon) [2004, США, Канада, боевик, триллер, криминал, BDRemux 1080p] DVO (Премьер Видео Фильм) + DVO (НТВ+) + DVO (Universal Pictures) + VO (Переводман) + Sub Rus, Eng + Original Eng

Reply to topic
 
Author
Message

Faust ®

Gender: Unknown

Longevity: 12 years

Posts: 23217

Reputation: 0 [+] [-]

Faust · Post 10-Jun-2023 10:45

[Quote] 

Шоссе смерти / Highwaymen
Страна: США, Канада
Студия: Millennium Films, Cornice Entertainment, New Line Cinema
Жанр: боевик, триллер, криминал
Год выпуска: 2004
Продолжительность: 01:20:52
Перевод 1: Профессиональный (двухголосый закадровый) Премьер Видео Фильм
Перевод 2: Профессиональный (двухголосый закадровый) НТВ+
Перевод 3: Профессиональный (двухголосый закадровый) Universal Pictures
Перевод 4: Одноголосый закадровый Переводман
Субтитры: Русские (Переводман + R5), английские (full + SDH)
Оригинальная аудиодорожка: английский
Режиссер: Роберт Хармон / Robert Harmon
В ролях: Джеймс Кэвизел, Рона Митра, Фрэнки Фэйзон, Колм Фиор, Гордон Карри, Андреа Рот, Ноам Дженкинс, Тоби Проктор, Джеймс Ки, Гайлейн Сент-Ондж, Гайлейн Сент-Ондж, Джо Пинг, Пол Рутледж, Брайан Ренфро
Описание: Ренни Крею терять нечего: после того, как извращённый садист безжалостно отнял жизнь у его жены, он бросил всё и посвятил годы поискам убийцы. Опасный психопат, который расправился с женой Крея, продолжает совершать зверские преступления: он разъезжает на своём потрепанном «Эль Дорадо» 72-го года выпуска по безлюдным ночным дорогам и убивает молодых женщин. Ренни, которому, наконец, удалось выйти на след маньяка, решает поймать его на живца, использовав для этого девушку, приглянувшуюся монстру…

Тип релиза: BDRemux 1080p
Контейнер: MKV
Видео: MPEG-4 AVC, 34 Мбит/с, 1920x1080, 23.976 кадр/с
Аудио 1: Russian; AC3; 48.0 KHz; 6 ch; 384 Kbps || DVO Премьер Видео Фильм
Аудио 2: Russian; AC3; 48.0 KHz; 2 ch; 192 Kbps || DVO НТВ+
Аудио 3: Russian; AC3; 48.0 KHz; 2 ch; 192 Kbps || DVO Universal Pictures
Аудио 4: Russian; AC3; 48.0 KHz; 6 ch; 384 Kbps || VO Переводман
Аудио 5: English; DTS-HD MA; 48.0 KHz/24-bit; 6 ch; 2491 Kbps (DTS Core: 5.1 / 48 kHz / 1509 kbps / 24-bit) || Original
Аудио 6: English; DTS-HD MA; 48.0 KHz/24-bit; 2 ch; 1777 Kbps (DTS Core: 2.0 / 48 kHz / 1509 kbps / 24-bit) || Original
Аудио 7: English; AC3; 48.0 KHz; 2 ch; 192 Kbps || Сommentary by Director Robert Harmon

MediaInfo

GeneralUnique ID                      : 248201653888738773488832946381023248582 (0xBAB9E655D309808A68A23E70779680C6)Complete name                  : D:\фильмы\Шоссе смерти.2004.BDRemux.1080p.R.G. Goldenshara.mkvFormat                         : MatroskaFormat version                 : Version 4 / Version 2File size                      : 21.5 GiBDuration                       : 1h 20mnOverall bit rate mode          : VariableOverall bit rate               : 38.1 MbpsMovie name                     : HighwaymenEncoded date                   : UTC 2023-06-03 01:22:23Writing application            : mkvmerge v56.0.0 ('Strasbourg / St. Denis') 64-bitWriting library                : libebml v1.4.2 + libmatroska v1.6.4Attachements                   : cover.jpgDURATION                       : 01:20:45.056000000NUMBER_OF_FRAMES               : 151408NUMBER_OF_BYTES                : 116281344SOURCE_ID                      : 001102_STATISTICS_WRITING_APP        : mkvmerge v56.0.0 ('Strasbourg / St. Denis') 64-bit_STATISTICS_WRITING_DATE_UTC   : 2023-06-03 01:22:23_STATISTICS_TAGS               : BPS DURATION NUMBER_OF_FRAMES NUMBER_OF_BYTES
VideoID : 1Format : AVCFormat/Info : Advanced Video CodecFormat profile : High@L4.1Format settings, CABAC : YesFormat settings, ReFrames : 4 framesCodec ID : V_MPEG4/ISO/AVCDuration : 1h 20mnBit rate mode : ConstantNominal bit rate : 34.0 MbpsWidth : 1 920 pixelsHeight : 1 080 pixelsDisplay aspect ratio : 16:9Frame rate mode : ConstantFrame rate : 23.976 fpsColor space : YUVChroma subsampling : 4:2:0Bit depth : 8 bitsScan type : ProgressiveBits/(Pixel*Frame) : 0.684Language : EnglishDefault : YesForced : No
Audio #1ID : 2Format : AC-3Format/Info : Audio Coding 3Mode extension : CM (complete main)Format settings, Endianness : BigCodec ID : A_AC3Duration : 1h 20mnBit rate mode : ConstantBit rate : 384 KbpsChannel(s) : 6 channelsChannel positions : Front: L C R, Side: L R, LFESampling rate : 48.0 KHzBit depth : 16 bitsCompression mode : LossyStream size : 222 MiB (1%)Title : DVO Премьер Видео ФильмLanguage : RussianDefault : YesForced : No
Audio #2ID : 3Format : AC-3Format/Info : Audio Coding 3Mode extension : CM (complete main)Format settings, Endianness : BigCodec ID : A_AC3Duration : 1h 20mnBit rate mode : ConstantBit rate : 192 KbpsChannel(s) : 2 channelsChannel positions : Front: L RSampling rate : 48.0 KHzBit depth : 16 bitsCompression mode : LossyStream size : 111 MiB (1%)Title : DVO НТВ+Language : RussianDefault : NoForced : No
Audio #3ID : 4Format : AC-3Format/Info : Audio Coding 3Mode extension : CM (complete main)Format settings, Endianness : BigCodec ID : A_AC3Duration : 1h 20mnBit rate mode : ConstantBit rate : 192 KbpsChannel(s) : 2 channelsChannel positions : Front: L RSampling rate : 48.0 KHzBit depth : 16 bitsCompression mode : LossyStream size : 111 MiB (1%)Title : DVO Universal Pictures RusLanguage : RussianDefault : NoForced : No
Audio #4ID : 5Format : AC-3Format/Info : Audio Coding 3Mode extension : CM (complete main)Format settings, Endianness : BigCodec ID : A_AC3Duration : 1h 20mnBit rate mode : ConstantBit rate : 384 KbpsChannel(s) : 6 channelsChannel positions : Front: L C R, Side: L R, LFESampling rate : 48.0 KHzBit depth : 16 bitsCompression mode : LossyStream size : 222 MiB (1%)Title : VO ПереводманLanguage : RussianDefault : NoForced : No
Audio #5ID : 6Format : DTSFormat/Info : Digital Theater SystemsFormat profile : MA / CoreMode : 16Format settings, Endianness : BigCodec ID : A_DTSDuration : 1h 20mnBit rate mode : VariableBit rate : Unknown / 1 509 KbpsChannel(s) : 6 channelsChannel positions : Front: L C R, Side: L R, LFESampling rate : 48.0 KHzBit depth : 24 bitsCompression mode : Lossless / LossyLanguage : EnglishDefault : NoForced : No
Audio #6ID : 7Format : DTSFormat/Info : Digital Theater SystemsFormat profile : MA / CoreMode : 16Format settings, Endianness : BigCodec ID : A_DTSDuration : 1h 20mnBit rate mode : VariableBit rate : Unknown / 1 509 KbpsChannel(s) : 2 channelsChannel positions : Front: L RSampling rate : 48.0 KHzBit depth : 24 bitsCompression mode : Lossless / LossyLanguage : EnglishDefault : NoForced : No
Audio #7ID : 8Format : AC-3Format/Info : Audio Coding 3Mode extension : CM (complete main)Format settings, Endianness : BigCodec ID : A_AC3Duration : 1h 20mnBit rate mode : ConstantBit rate : 192 KbpsChannel(s) : 2 channelsChannel positions : Front: L RSampling rate : 48.0 KHzBit depth : 16 bitsCompression mode : LossyStream size : 111 MiB (1%)Title : Сommentary by Director Robert HarmonLanguage : EnglishDefault : NoForced : No
Text #1ID : 9Format : UTF-8Codec ID : S_TEXT/UTF8Codec ID/Info : UTF-8 Plain TextTitle : ПереводманLanguage : RussianDefault : NoForced : No
Text #2ID : 10Format : UTF-8Codec ID : S_TEXT/UTF8Codec ID/Info : UTF-8 Plain TextLanguage : RussianDefault : NoForced : No
Text #3ID : 11Format : UTF-8Codec ID : S_TEXT/UTF8Codec ID/Info : UTF-8 Plain TextLanguage : EnglishDefault : NoForced : No
Text #4ID : 12Format : UTF-8Codec ID : S_TEXT/UTF8Codec ID/Info : UTF-8 Plain TextTitle : SDHLanguage : EnglishDefault : NoForced : No
Menu00:00:00.000 : Глава 0100:07:03.756 : Глава 0200:14:54.602 : Глава 0300:25:36.451 : Глава 0400:33:47.400 : Глава 0500:39:43.089 : Глава 0600:44:26.830 : Глава 0700:48:13.599 : Глава 0800:55:02.507 : Глава 0901:01:03.451 : Глава 1001:05:53.366 : Глава 1101:16:07.938 : Глава 12

Скриншоты

[Profile]  [PM] 
Display posts:    
Reply to topic

Current time is: 25-Jul 05:31

All times are UTC + 2



You cannot post new topics in this forum
You cannot reply to topics in this forum
You cannot edit your posts in this forum
You cannot delete your posts in this forum
You cannot vote in polls in this forum
You cannot attach files in this forum
You cannot download files in this forum