Свитуотер / Sweetwater (Мартин Гиги / Martin Guigui) [2023, США, драма, биография, спорт, BDRemux 1080p] MVO (Jaskier) + Sub Eng + Original Eng

Reply to topic
 
Author
Message

Faust ®

Gender: Unknown

Longevity: 12 years

Posts: 23217

Reputation: 0 [+] [-]

Faust · Post 10-Jun-2023 10:45

[Quote] 

Свитуотер
Sweetwater

Страна: США
Жанр: Драма, биография, спорт
Год выпуска: 2023
Продолжительность: 01:58:52
Перевод: Профессиональный (многоголосый закадровый) Jaskier
Субтитры: Aнглийские
Оригинальная аудиодорожка: Aнглийский
Режиссер: Мартин Гиги / Martin Guigui
В ролях: Эверетт Осборн, Кэри Элвес, Джереми Пивен, Кевин Поллак, Ричард Дрейфусс, Джеймс Кэвизел, Emmaline, Эрик Робертс, Эрнест Харден мл., Роберт Ричард
Описание: Натаниэль родился в Англии, с детства увлекался спортом и предпочитал здоровый образ жизни. После переезда в Чикаго его потенциал заметили школьные тренеры, но его карьера была прервана Второй мировой войной, которую он провел в армии США. После окончания войны он присоединился к профессиональной команде чернокожих игроков и оставался лучшим баскетболистом на протяжении многих лет.
Спасибо kro44i за дорожку

Тип релиза: BDRemux 1080p
Контейнер: MKV
Видео: MPEG-4 AVC, 1080p, 1920:1080 (16:9), 35868 kbps, 23.976 fps
Аудио 1: АС3, 6 ch, 48 kHz, 448 kbps Русский MVO Jaskier
Аудио 2: DTS-HD MA, 6 ch, 48 kHz, 3417 kbps, 24-bit (DTS Core 6 ch, 48 kHz, 1509 kbps, 24-bit) Английский
Формат субтитров: SRT

MediaInfo

GeneralUnique ID                                : 272421899439739305069335403431966513002 (0xCCF28CA31ADEDD786EF98F49A863976A)Complete name                            : G:\Sweetwater.2023.REMUX.mkvFormat                                   : MatroskaFormat version                           : Version 4File size                                : 33.0 GiBDuration                                 : 1 h 58 minOverall bit rate mode                    : VariableOverall bit rate                         : 39.7 Mb/sEncoded date                             : UTC 2023-06-09 12:16:47Writing application                      : mkvmerge v20.0.0 ('I Am The Sun') 64-bitWriting library                          : libebml v1.3.5 + libmatroska v1.4.8
VideoID : 1Format : AVCFormat/Info : Advanced Video CodecFormat profile : High@L4.1Format settings : CABAC / 4 Ref FramesFormat settings, CABAC : YesFormat settings, Reference frames : 4 framesCodec ID : V_MPEG4/ISO/AVCDuration : 1 h 58 minBit rate mode : VariableBit rate : 35.9 Mb/sMaximum bit rate : 38.0 Mb/sWidth : 1 920 pixelsHeight : 1 080 pixelsDisplay aspect ratio : 16:9Frame rate mode : ConstantFrame rate : 23.976 (24000/1001) FPSColor space : YUVChroma subsampling : 4:2:0Bit depth : 8 bitsScan type : ProgressiveBits/(Pixel*Frame) : 0.721Stream size : 29.8 GiB (90%)Language : EnglishDefault : YesForced : No
Audio #1ID : 2Format : AC-3Format/Info : Audio Coding 3Commercial name : Dolby DigitalCodec ID : A_AC3Duration : 1 h 58 minBit rate mode : ConstantBit rate : 448 kb/sChannel(s) : 6 channelsChannel layout : L R C LFE Ls RsSampling rate : 48.0 kHzFrame rate : 31.250 FPS (1536 SPF)Compression mode : LossyStream size : 381 MiB (1%)Title : MVO JaskierLanguage : RussianService kind : Complete MainDefault : YesForced : No
Audio #2ID : 3Format : DTS XLLFormat/Info : Digital Theater SystemsCommercial name : DTS-HD Master AudioCodec ID : A_DTSDuration : 1 h 58 minBit rate mode : VariableBit rate : 3 417 kb/sChannel(s) : 6 channelsChannel layout : C L R Ls Rs LFESampling rate : 48.0 kHzFrame rate : 93.750 FPS (512 SPF)Bit depth : 24 bitsCompression mode : LosslessStream size : 2.84 GiB (9%)Language : EnglishDefault : NoForced : No
TextID : 4Format : UTF-8Codec ID : S_TEXT/UTF8Codec ID/Info : UTF-8 Plain TextDuration : 1 h 47 minBit rate : 70 b/sCount of elements : 2014Stream size : 55.6 KiB (0%)Language : EnglishDefault : NoForced : No
Menu00:00:00.000 : en:Chapter 0100:07:13.723 : en:Chapter 0200:12:43.220 : en:Chapter 0300:16:29.571 : en:Chapter 0400:23:04.257 : en:Chapter 0500:26:33.258 : en:Chapter 0600:33:26.626 : en:Chapter 0700:38:27.346 : en:Chapter 0800:44:56.860 : en:Chapter 0900:51:44.893 : en:Chapter 1000:56:40.980 : en:Chapter 1101:00:30.376 : en:Chapter 1201:07:23.329 : en:Chapter 1301:12:18.500 : en:Chapter 1401:18:58.524 : en:Chapter 1501:24:51.002 : en:Chapter 1601:28:58.707 : en:Chapter 1701:39:05.564 : en:Chapter 1801:48:22.662 : en:Chapter 1901:50:49.265 : en:Chapter 20

Скриншоты


[Profile]  [PM] 
Display posts:    
Reply to topic

Current time is: 25-Jul 05:29

All times are UTC + 2



You cannot post new topics in this forum
You cannot reply to topics in this forum
You cannot edit your posts in this forum
You cannot delete your posts in this forum
You cannot vote in polls in this forum
You cannot attach files in this forum
You cannot download files in this forum