Чумовая Пятница / Freaky Friday (Марк Уотерс / Mark Waters) [2003, США, комедия, семейный, BDRemux 1080p] Dub + MVO (СТС) + DVO (DDV) + AVO (Карповский) + VO + Sub Rus, Eng + Original Eng

Reply to topic
 
Author
Message

Faust ®

Gender: Unknown

Longevity: 12 years

Posts: 23187

Reputation: 0 [+] [-]

Faust · Post 10-Jun-2023 18:55

[Quote] 

Чумовая пятница / Freaky Friday---USA Transfer | Disney---
Страна: США
Студия: Casual Friday Productions, Gunn Films, Walt Disney Pictures
Жанр: комедия, семейный
Год выпуска: 2003
Продолжительность: 01:36:56
Перевод: Профессиональный (дублированный)
Перевод: Профессиональный (многоголосый закадровый) - СТС
Перевод: Профессиональный (двухголосый закадровый) - DDV
Перевод: Авторский (одноголосый закадровый) - Антон Карповский
Перевод: Одноголосый закадровый - LDV Владимир Терещук
Субтитры: русские, английские (полные, для слабослышащих), немецкие, французские, испанские (европейские, латиноамериканские), итальянские, португальские (европейские, бразильские), арабские, болгарские, боснийские, венгерские, вьетнамские, голландские, греческие, датские, иврит, индонезийские, исландские, китайские (упрощённые, традиционные), корейские, малазийские, норвежские, польские, румынские, сербские, словацкие, словенские, тайские, турецкие, фарси, финские, хорватские, чешские, шведские, японские
Оригинальная аудиодорожка: английский

Режиссер: Марк Уотерс / Mark Waters
В ролях: Джейми Ли Кёртис, Линдси Лохан, Марк Хэрмон, Харольд Гулд, Чад Майкл Мюррэй, Стивен Тоболовски, Кристина Видал, Райан Малгарини, Хейли Хадсон, Розалинд Чао
Описание: Тэсс Коулман весьма успешный психолог, в последнее время находится в натянутых отношениях со своей дочерью-подростком Анной, и в один из дней конфликт достигает своего пика. На следующее утро после крупной ссоры, Тэсси и Анна буквально оказываются не в себе. Теперь они должны найти разгадку в произошедших событиях, чтобы вернуть всё на свои места...--
Исходник - Freaky.Friday.2003.1080p.BluRay.REMUX.AVC.DTS-HD.MA.5.1-EPSiLON.mkv. Русские дорожки отсюда. Спасибо doclogan. Карповский отсюда. Спасибо kro44i! СТС отсюда. Спасибо xfiles! Синхронизация на моей совести. Обложка соответствует изданию.
--Сэмпл | Кинопоиск | IMDb
Тип релиза: BDRemux 1080p
Контейнер: MKV
Видео: 1920x1080 (16:9), 23.976 fps, AVC, 26997 kbps, 0.545 bits/pixel
Аудио 1: Russian, 48.0 KHz, AC3, 2 ch, 192 Kbps - Dub R5
Аудио 2: Russian, 48.0 KHz, AC3, 2 ch, 256 Kbps - MVO СТС
Аудио 3: Russian, 48.0 KHz, AC3, 6 ch, 384 Kbps - DVO DDV
Аудио 4: Russian, 48.0 KHz, AC3, 2 ch, 128 Kbps - AVO Антон Карповский
Аудио 5: Russian, 48.0 KHz, AC3, 6 ch, 384 Kbps - VO LDV (Владимир Терещук)
Аудио 6: English, 48.0 KHz, DTS-HD MA, 6 ch, 3668 Kbps/1509 Kbps - Original

MediaInfo

ОбщееУникальный идентификатор                 : 220392397687264287948078569502232535891 (0xA5CE08257E95C0E980860A7E1A6FE353)Полное имя                               : U:\Vremyanka\Freaky.Friday.2003.Disney.BDRemux.1080p.mkvФормат                                   : MatroskaВерсия формата                           : Version 4Размер файла                             : 21,5 ГбайтПродолжительность                        : 1 ч. 36 м.Режим общего битрейта                    : ПеременныйОбщий поток                              : 31,8 Мбит/секНазвание фильма                          : Freaky.Friday.2003.Disney.BDRemux.1080p_AllFilms_tekoДата кодирования                         : UTC 2023-06-07 22:09:37Программа кодирования                    : mkvmerge v9.5.0 ('Quiet Fire') 64bitБиблиотека кодирования                   : libebml v1.3.4 + libmatroska v1.4.5Обложка                                  : YesAttachments                              : Freaky.Friday.2003.BD.Front.Cover.png / Freaky.Friday.2003.BD.Back.Cover.png / Freaky.Friday.2003.BD.Print.png / Freaky.Friday.2003.Print.png / Freaky.Friday.2003.DVD.Cover.jpg / Freaky.Friday.2003.DVD.Print.png / Freaky.Friday.2003.Poster.jpg / Freaky.Friday.2003.Plakat.jpg / Freaky.Friday.2003.Afisha.jpg
ВидеоИдентификатор : 1Формат : AVCФормат/Информация : Advanced Video CodecПрофиль формата : High@L4.1Настройки формата : CABAC / 4 Ref FramesПараметр CABAC формата : ДаПараметр RefFrames формата : 4 кадраИдентификатор кодека : V_MPEG4/ISO/AVCПродолжительность : 1 ч. 36 м.Вид битрейта : ПеременныйБитрейт : 26,7 Мбит/секМаксимальный битрейт : 32,0 Мбит/секШирина : 1920 пикселейВысота : 1080 пикселейСоотношение сторон : 16:9Режим частоты кадров : ПостоянныйЧастота кадров : 23,976 (24000/1001) кадра/секЦветовое пространство : YUVСубдискретизация насыщенности : 4:2:0Битовая глубина : 8 битТип развёртки : ПрогрессивнаяБит/(Пиксели*Кадры) : 0.537Размер потока : 18,1 Гбайт (84%)Заголовок : Freaky.Friday.2003.Disney.BDRemux.1080pЯзык : EnglishDefault : ДаForced : Нет
Аудио #1Идентификатор : 2Формат : AC-3Формат/Информация : Audio Coding 3Коммерческое название : Dolby DigitalИдентификатор кодека : A_AC3Продолжительность : 1 ч. 36 м.Вид битрейта : ПостоянныйБитрейт : 192 Кбит/секКаналы : 2 каналаChannelLayout : L RЧастота : 48,0 КГцЧастота кадров : 31,250 кадров/сек (1536 SPF)Метод сжатия : С потерямиРазмер потока : 133 Мбайт (1%)Заголовок : Dub R5Язык : RussianServiceKind/String : Complete MainDefault : ДаForced : Нет
Аудио #2Идентификатор : 3Формат : AC-3Формат/Информация : Audio Coding 3Коммерческое название : Dolby DigitalИдентификатор кодека : A_AC3Продолжительность : 1 ч. 36 м.Вид битрейта : ПостоянныйБитрейт : 256 Кбит/секКаналы : 2 каналаChannelLayout : L RЧастота : 48,0 КГцЧастота кадров : 31,250 кадров/сек (1536 SPF)Метод сжатия : С потерямиРазмер потока : 177 Мбайт (1%)Заголовок : MVO СТСЯзык : RussianServiceKind/String : Complete MainDefault : НетForced : Нет
Аудио #3Идентификатор : 4Формат : AC-3Формат/Информация : Audio Coding 3Коммерческое название : Dolby DigitalИдентификатор кодека : A_AC3Продолжительность : 1 ч. 36 м.Вид битрейта : ПостоянныйБитрейт : 384 Кбит/секКаналы : 6 каналовChannelLayout : L R C LFE Ls RsЧастота : 48,0 КГцЧастота кадров : 31,250 кадров/сек (1536 SPF)Метод сжатия : С потерямиРазмер потока : 266 Мбайт (1%)Заголовок : DVO DDVЯзык : RussianServiceKind/String : Complete MainDefault : НетForced : Нет
Аудио #4Идентификатор : 5Формат : AC-3Формат/Информация : Audio Coding 3Коммерческое название : Dolby DigitalИдентификатор кодека : A_AC3Продолжительность : 1 ч. 36 м.Вид битрейта : ПостоянныйБитрейт : 128 Кбит/секКаналы : 2 каналаChannelLayout : L RЧастота : 48,0 КГцЧастота кадров : 31,250 кадров/сек (1536 SPF)Метод сжатия : С потерямиРазмер потока : 88,7 Мбайт (0%)Заголовок : AVO Антон КарповскийЯзык : RussianServiceKind/String : Complete MainDefault : НетForced : Нет
Аудио #5Идентификатор : 6Формат : AC-3Формат/Информация : Audio Coding 3Коммерческое название : Dolby DigitalИдентификатор кодека : A_AC3Продолжительность : 1 ч. 36 м.Вид битрейта : ПостоянныйБитрейт : 384 Кбит/секКаналы : 6 каналовChannelLayout : L R C LFE Ls RsЧастота : 48,0 КГцЧастота кадров : 31,250 кадров/сек (1536 SPF)Метод сжатия : С потерямиРазмер потока : 266 Мбайт (1%)Заголовок : VO LDV (Владимир Терещук)Язык : RussianServiceKind/String : Complete MainDefault : НетForced : Нет
Аудио #6Идентификатор : 7Формат : DTS XLLФормат/Информация : Digital Theater SystemsКоммерческое название : DTS-HD Master AudioИдентификатор кодека : A_DTSПродолжительность : 1 ч. 36 м.Вид битрейта : ПеременныйБитрейт : 3668 Кбит/секКаналы : 6 каналовChannelLayout : C L R Ls Rs LFEЧастота : 48,0 КГцЧастота кадров : 93,750 кадра/сек (512 SPF)Битовая глубина : 24 битМетод сжатия : Без потерьРазмер потока : 2,48 Гбайт (12%)Заголовок : OriginalЯзык : EnglishDefault : НетForced : Нет
Текст #1Идентификатор : 8Формат : UTF-8Идентификатор кодека : S_TEXT/UTF8Идентификатор кодека/Информация : UTF-8 Plain TextПродолжительность : 1 ч. 32 м.Битрейт : 102 бит/секElementCount : 1205Размер потока : 69,4 Кбайт (0%)Заголовок : RussianЯзык : RussianDefault : НетForced : Нет
Текст #2Идентификатор : 9Формат : UTF-8Идентификатор кодека : S_TEXT/UTF8Идентификатор кодека/Информация : UTF-8 Plain TextПродолжительность : 1 ч. 34 м.Битрейт : 75 бит/секElementCount : 1442Размер потока : 51,8 Кбайт (0%)Заголовок : English FullЯзык : EnglishDefault : НетForced : Нет
Текст #3Идентификатор : 10Формат : UTF-8Идентификатор кодека : S_TEXT/UTF8Идентификатор кодека/Информация : UTF-8 Plain TextПродолжительность : 1 ч. 34 м.Битрейт : 79 бит/секElementCount : 1555Размер потока : 54,9 Кбайт (0%)Заголовок : English SDHЯзык : EnglishDefault : НетForced : Нет
Текст #4Идентификатор : 11Формат : UTF-8Идентификатор кодека : S_TEXT/UTF8Идентификатор кодека/Информация : UTF-8 Plain TextПродолжительность : 1 ч. 32 м.Битрейт : 64 бит/секElementCount : 1201Размер потока : 43,4 Кбайт (0%)Заголовок : GermanЯзык : GermanDefault : НетForced : Нет
Текст #5Идентификатор : 12Формат : UTF-8Идентификатор кодека : S_TEXT/UTF8Идентификатор кодека/Информация : UTF-8 Plain TextПродолжительность : 1 ч. 28 м.Битрейт : 71 бит/секElementCount : 1500Размер потока : 46,7 Кбайт (0%)Заголовок : FrenchЯзык : FrenchDefault : НетForced : Нет
Текст #6Идентификатор : 13Формат : UTF-8Идентификатор кодека : S_TEXT/UTF8Идентификатор кодека/Информация : UTF-8 Plain TextПродолжительность : 1 ч. 28 м.Битрейт : 76 бит/секElementCount : 1268Размер потока : 49,6 Кбайт (0%)Заголовок : Spanish CastillanЯзык : SpanishDefault : НетForced : Нет
Текст #7Идентификатор : 14Формат : UTF-8Идентификатор кодека : S_TEXT/UTF8Идентификатор кодека/Информация : UTF-8 Plain TextПродолжительность : 1 ч. 32 м.Битрейт : 68 бит/секElementCount : 1334Размер потока : 46,1 Кбайт (0%)Заголовок : Spanish Latin AmericaЯзык : SpanishDefault : НетForced : Нет
Текст #8Идентификатор : 15Формат : UTF-8Идентификатор кодека : S_TEXT/UTF8Идентификатор кодека/Информация : UTF-8 Plain TextПродолжительность : 1 ч. 28 м.Битрейт : 64 бит/секElementCount : 1201Размер потока : 42,1 Кбайт (0%)Заголовок : ItalianЯзык : ItalianDefault : НетForced : Нет
Текст #9Идентификатор : 16Формат : UTF-8Идентификатор кодека : S_TEXT/UTF8Идентификатор кодека/Информация : UTF-8 Plain TextПродолжительность : 1 ч. 32 м.Битрейт : 64 бит/секElementCount : 1146Размер потока : 43,8 Кбайт (0%)Заголовок : Portuguese IberianЯзык : PortugueseDefault : НетForced : Нет
Текст #10Идентификатор : 17Формат : UTF-8Идентификатор кодека : S_TEXT/UTF8Идентификатор кодека/Информация : UTF-8 Plain TextПродолжительность : 1 ч. 28 м.Битрейт : 70 бит/секElementCount : 1565Размер потока : 45,7 Кбайт (0%)Заголовок : Portuguese BrazilianЯзык : PortugueseDefault : НетForced : Нет
Текст #11Идентификатор : 18Формат : UTF-8Идентификатор кодека : S_TEXT/UTF8Идентификатор кодека/Информация : UTF-8 Plain TextПродолжительность : 1 ч. 29 м.Битрейт : 97 бит/секElementCount : 1203Размер потока : 64,3 Кбайт (0%)Заголовок : ArabicЯзык : ArabicDefault : НетForced : Нет
Текст #12Идентификатор : 19Формат : UTF-8Идентификатор кодека : S_TEXT/UTF8Идентификатор кодека/Информация : UTF-8 Plain TextПродолжительность : 1 ч. 29 м.Битрейт : 97 бит/секElementCount : 1099Размер потока : 63,8 Кбайт (0%)Заголовок : BulgarianЯзык : BulgarianDefault : НетForced : Нет
Текст #13Идентификатор : 20Формат : UTF-8Идентификатор кодека : S_TEXT/UTF8Идентификатор кодека/Информация : UTF-8 Plain TextПродолжительность : 1 ч. 28 м.Битрейт : 65 бит/секElementCount : 1567Размер потока : 42,8 Кбайт (0%)Заголовок : BosnianЯзык : BosnianDefault : НетForced : Нет
Текст #14Идентификатор : 21Формат : UTF-8Идентификатор кодека : S_TEXT/UTF8Идентификатор кодека/Информация : UTF-8 Plain TextПродолжительность : 1 ч. 32 м.Битрейт : 60 бит/секElementCount : 1203Размер потока : 40,5 Кбайт (0%)Заголовок : HungarianЯзык : HungarianDefault : НетForced : Нет
Текст #15Идентификатор : 22Формат : UTF-8Идентификатор кодека : S_TEXT/UTF8Идентификатор кодека/Информация : UTF-8 Plain TextПродолжительность : 1 ч. 36 м.Битрейт : 83 бит/секElementCount : 1258Размер потока : 59,0 Кбайт (0%)Заголовок : VietnameseЯзык : VietnameseDefault : НетForced : Нет
Текст #16Идентификатор : 23Формат : UTF-8Идентификатор кодека : S_TEXT/UTF8Идентификатор кодека/Информация : UTF-8 Plain TextПродолжительность : 1 ч. 28 м.Битрейт : 75 бит/секElementCount : 1268Размер потока : 48,9 Кбайт (0%)Заголовок : DutchЯзык : DutchDefault : НетForced : Нет
Текст #17Идентификатор : 24Формат : UTF-8Идентификатор кодека : S_TEXT/UTF8Идентификатор кодека/Информация : UTF-8 Plain TextПродолжительность : 1 ч. 36 м.Битрейт : 102 бит/секElementCount : 1205Размер потока : 72,3 Кбайт (0%)Заголовок : GreekЯзык : GreekDefault : НетForced : Нет
Текст #18Идентификатор : 25Формат : UTF-8Идентификатор кодека : S_TEXT/UTF8Идентификатор кодека/Информация : UTF-8 Plain TextПродолжительность : 1 ч. 28 м.Битрейт : 64 бит/секElementCount : 1208Размер потока : 42,2 Кбайт (0%)Заголовок : DanishЯзык : DanishDefault : НетForced : Нет
Текст #19Идентификатор : 26Формат : UTF-8Идентификатор кодека : S_TEXT/UTF8Идентификатор кодека/Информация : UTF-8 Plain TextПродолжительность : 1 ч. 33 м.Битрейт : 90 бит/секElementCount : 1296Размер потока : 62,5 Кбайт (0%)Заголовок : HebrewЯзык : HebrewDefault : НетForced : Нет
Текст #20Идентификатор : 27Формат : UTF-8Идентификатор кодека : S_TEXT/UTF8Идентификатор кодека/Информация : UTF-8 Plain TextПродолжительность : 1 ч. 28 м.Битрейт : 72 бит/секElementCount : 1195Размер потока : 47,3 Кбайт (0%)Заголовок : IndonesianЯзык : IndonesianDefault : НетForced : Нет
Текст #21Идентификатор : 28Формат : UTF-8Идентификатор кодека : S_TEXT/UTF8Идентификатор кодека/Информация : UTF-8 Plain TextПродолжительность : 1 ч. 32 м.Битрейт : 68 бит/секElementCount : 1207Размер потока : 45,8 Кбайт (0%)Заголовок : IcelandicЯзык : IcelandicDefault : НетForced : Нет
Текст #22Идентификатор : 29Формат : UTF-8Идентификатор кодека : S_TEXT/UTF8Идентификатор кодека/Информация : UTF-8 Plain TextПродолжительность : 1 ч. 29 м.Битрейт : 67 бит/секElementCount : 1570Размер потока : 44,2 Кбайт (0%)Заголовок : Chinese SimplifiedЯзык : ChineseDefault : НетForced : Нет
Текст #23Идентификатор : 30Формат : UTF-8Идентификатор кодека : S_TEXT/UTF8Идентификатор кодека/Информация : UTF-8 Plain TextПродолжительность : 1 ч. 32 м.Битрейт : 53 бит/секElementCount : 1598Размер потока : 35,9 Кбайт (0%)Заголовок : Chinese TraditionalЯзык : ChineseDefault : НетForced : Нет
Текст #24Идентификатор : 31Формат : UTF-8Идентификатор кодека : S_TEXT/UTF8Идентификатор кодека/Информация : UTF-8 Plain TextПродолжительность : 1 ч. 35 м.Битрейт : 67 бит/секElementCount : 1501Размер потока : 47,4 Кбайт (0%)Заголовок : Chinese Traditional HKЯзык : ChineseDefault : НетForced : Нет
Текст #25Идентификатор : 32Формат : UTF-8Идентификатор кодека : S_TEXT/UTF8Идентификатор кодека/Информация : UTF-8 Plain TextПродолжительность : 1 ч. 29 м.Битрейт : 63 бит/секElementCount : 1450Размер потока : 41,3 Кбайт (0%)Заголовок : KoreanЯзык : KoreanDefault : НетForced : Нет
Текст #26Идентификатор : 33Формат : UTF-8Идентификатор кодека : S_TEXT/UTF8Идентификатор кодека/Информация : UTF-8 Plain TextПродолжительность : 1 ч. 35 м.Битрейт : 67 бит/секElementCount : 1468Размер потока : 47,5 Кбайт (0%)Заголовок : MalayЯзык : MalayDefault : НетForced : Нет
Текст #27Идентификатор : 34Формат : UTF-8Идентификатор кодека : S_TEXT/UTF8Идентификатор кодека/Информация : UTF-8 Plain TextПродолжительность : 1 ч. 35 м.Битрейт : 126 бит/секElementCount : 1468Размер потока : 89,1 Кбайт (0%)Заголовок : Malay ColoredЯзык : MalayDefault : НетForced : Нет
Текст #28Идентификатор : 35Формат : UTF-8Идентификатор кодека : S_TEXT/UTF8Идентификатор кодека/Информация : UTF-8 Plain TextПродолжительность : 1 ч. 28 м.Битрейт : 60 бит/секElementCount : 1200Размер потока : 39,3 Кбайт (0%)Заголовок : NorwegianЯзык : NorwegianDefault : НетForced : Нет
Текст #29Идентификатор : 36Формат : UTF-8Идентификатор кодека : S_TEXT/UTF8Идентификатор кодека/Информация : UTF-8 Plain TextПродолжительность : 1 ч. 32 м.Битрейт : 63 бит/секElementCount : 1204Размер потока : 42,5 Кбайт (0%)Заголовок : PolishЯзык : PolishDefault : НетForced : Нет
Текст #30Идентификатор : 37Формат : UTF-8Идентификатор кодека : S_TEXT/UTF8Идентификатор кодека/Информация : UTF-8 Plain TextПродолжительность : 1 ч. 29 м.Битрейт : 63 бит/секElementCount : 1531Размер потока : 41,5 Кбайт (0%)Заголовок : RomanianЯзык : RomanianDefault : НетForced : Нет
Текст #31Идентификатор : 38Формат : UTF-8Идентификатор кодека : S_TEXT/UTF8Идентификатор кодека/Информация : UTF-8 Plain TextПродолжительность : 1 ч. 28 м.Битрейт : 65 бит/секElementCount : 1564Размер потока : 42,8 Кбайт (0%)Заголовок : SerbianЯзык : SerbianDefault : НетForced : Нет
Текст #32Идентификатор : 39Формат : UTF-8Идентификатор кодека : S_TEXT/UTF8Идентификатор кодека/Информация : UTF-8 Plain TextПродолжительность : 1 ч. 28 м.Битрейт : 71 бит/секElementCount : 1544Размер потока : 46,7 Кбайт (0%)Заголовок : SlovakЯзык : SlovakDefault : НетForced : Нет
Текст #33Идентификатор : 40Формат : UTF-8Идентификатор кодека : S_TEXT/UTF8Идентификатор кодека/Информация : UTF-8 Plain TextПродолжительность : 1 ч. 35 м.Битрейт : 59 бит/секElementCount : 1498Размер потока : 41,9 Кбайт (0%)Заголовок : SlovenianЯзык : SlovenianDefault : НетForced : Нет
Текст #34Идентификатор : 41Формат : UTF-8Идентификатор кодека : S_TEXT/UTF8Идентификатор кодека/Информация : UTF-8 Plain TextПродолжительность : 1 ч. 28 м.Битрейт : 150 бит/секElementCount : 1608Размер потока : 97,8 Кбайт (0%)Заголовок : ThaiЯзык : ThaiDefault : НетForced : Нет
Текст #35Идентификатор : 42Формат : UTF-8Идентификатор кодека : S_TEXT/UTF8Идентификатор кодека/Информация : UTF-8 Plain TextПродолжительность : 1 ч. 29 м.Битрейт : 67 бит/секElementCount : 1203Размер потока : 44,0 Кбайт (0%)Заголовок : TurkishЯзык : TurkishDefault : НетForced : Нет
Текст #36Идентификатор : 43Формат : UTF-8Идентификатор кодека : S_TEXT/UTF8Идентификатор кодека/Информация : UTF-8 Plain TextПродолжительность : 1 ч. 28 м.Битрейт : 101 бит/секElementCount : 1582Размер потока : 66,1 Кбайт (0%)Заголовок : PersianЯзык : PersianDefault : НетForced : Нет
Текст #37Идентификатор : 44Формат : UTF-8Идентификатор кодека : S_TEXT/UTF8Идентификатор кодека/Информация : UTF-8 Plain TextПродолжительность : 1 ч. 29 м.Битрейт : 70 бит/секElementCount : 1521Размер потока : 46,4 Кбайт (0%)Заголовок : FinnishЯзык : FinnishDefault : НетForced : Нет
Текст #38Идентификатор : 45Формат : UTF-8Идентификатор кодека : S_TEXT/UTF8Идентификатор кодека/Информация : UTF-8 Plain TextПродолжительность : 1 ч. 28 м.Битрейт : 65 бит/секElementCount : 1566Размер потока : 42,8 Кбайт (0%)Заголовок : CroatianЯзык : CroatianDefault : НетForced : Нет
Текст #39Идентификатор : 46Формат : UTF-8Идентификатор кодека : S_TEXT/UTF8Идентификатор кодека/Информация : UTF-8 Plain TextПродолжительность : 1 ч. 32 м.Битрейт : 59 бит/секElementCount : 1203Размер потока : 40,0 Кбайт (0%)Заголовок : CzechЯзык : CzechDefault : НетForced : Нет
Текст #40Идентификатор : 47Формат : UTF-8Идентификатор кодека : S_TEXT/UTF8Идентификатор кодека/Информация : UTF-8 Plain TextПродолжительность : 1 ч. 28 м.Битрейт : 61 бит/секElementCount : 1318Размер потока : 40,3 Кбайт (0%)Заголовок : SwedishЯзык : SwedishDefault : НетForced : Нет
Текст #41Идентификатор : 48Формат : UTF-8Идентификатор кодека : S_TEXT/UTF8Идентификатор кодека/Информация : UTF-8 Plain TextПродолжительность : 1 ч. 30 м.Битрейт : 57 бит/секElementCount : 1341Размер потока : 38,2 Кбайт (0%)Заголовок : JapaneseЯзык : JapaneseDefault : НетForced : Нет
Меню00:00:00.000 : en:.Opposite Lives00:10:13.069 : en:Conflict Of Interest00:17:30.340 : en:Freaky Fortune00:24:05.609 : en:What Happened Last Night?00:32:58.017 : en:Reversed Roles00:41:53.052 : en:A Day In The Life00:55:04.050 : en:Personality Test01:03:52.745 : en:Sparks Fly01:11:18.524 : en:Rehearsal Dinner01:16:36.466 : en:Mom Rocks The House01:22:15.847 : en:Selfless Love01:29:50.426 : en:End Credits
Релиз группы:
--
[Profile]  [PM] 
Display posts:    
Reply to topic

Current time is: 20-Jul 03:13

All times are UTC + 2



You cannot post new topics in this forum
You cannot reply to topics in this forum
You cannot edit your posts in this forum
You cannot delete your posts in this forum
You cannot vote in polls in this forum
You cannot attach files in this forum
You cannot download files in this forum