Иностранец / The Foreigner (Майкл Обловитц / Michael Oblowitz) [2003, США, Польша, боевик, триллер, WEBRip 1080p] MVO (Видеосервис) + AVO (Сергей Визгунов) + DVO UKR (1+1) Sub Eng + Original Eng

Reply to topic
 
Author
Message

Faust ®

Gender: Unknown

Longevity: 12 years

Posts: 23217

Reputation: 0 [+] [-]

Faust · Post 11-Jun-2023 11:15

[Quote] 

Иностранец / The Foreigner- Страна: США, Польша
Студия: Foreigner Productions Inc., Franchise Pictures
Жанр: Боевик, Триллер
Год выпуска: 2003
Продолжительность: 01:35:59
Перевод 1: Профессиональный (многоголосый закадровый) Видеосервис
Перевод 2: Авторский (одноголосый закадровый) Сергей Визгунов
Субтитры: английские
Оригинальная аудиодорожка: английский
Режиссер: Майк Обловитц / Michael Oblowitz
В ролях: Стивен Сигал, Макс Райан, Гарри Ван Горкум, Джеффри Пирс, Анна-Луиза Плауман, Шерман Огастас, Гари Рэймонд, Филип Данбар, Изабела Окраса, Гжегож Ковальчук
Описание: Тот, кто владеет информацией, живет долго и счастливо. Но, похоже, тайному агенту Коулду не повезло. Он получил задание доставить из Франции в Германию некую посылку, о содержимом которой он не имеет никакого понятия. Печально, поскольку орды конкурирующих между собой убийц, немедленно садящихся герою на хвост и наперебой норовящих отправить его на тот свет, явно знают об этом грузе больше, чем он. Рутинное поручение превращается в безумную гонку, ставка в которой - жизнь. Такой поворот событий расстроит кого хочешь, но вот какая штука: когда расстраивается такой крутой и опасный парень, как Коулд - лучше не быть в числе его обидчиков...-https://www.imdb.com/title/tt0312700 | https://www.kinopoisk.ru/film/18828/-Сэмпл: https://www.sendspace.com/file/reu0jp-Тип релиза: WEBRip 1080p
Контейнер: MKV
Видео: AVC, 1916x1076 (16:9), 23.976 fps, 5 259 kb/s (0.106 bit/pixel)
Аудио #1: AC-3, 48.0 kHz, 6 ch, 448 kb/s, CBR (Russian MVO)
Аудио #2: AC-3, 48.0 kHz, 2 ch, 192 kb/s, CBR (Ukrainian DVO)
Аудио #3: AC-3, 48.0 kHz, 2 ch, 192 kb/s, CBR (Russian AVO)
Аудио #4: AAC, 48.0 kHz, 2 ch, 126 kb/s (English)
Формат субтитров: softsub (SRT)

MediaInfo

ОбщееУникальный идентификатор                 : 103518441548951126104974287885471787381 (0x4DE0ED381E342EF8EBB9F56104E32975)Полное имя                               : D:\Video\Иностранец (The Foreigner)[2003, WEBRip 1080p].mkvФормат                                   : MatroskaВерсия формата                           : Version 4Размер файла                             : 7,22 ГбайтПродолжительность                        : 1 ч. 35 м.Общий поток                              : 10,8 Мбит/секЧастота кадров                           : 23,976 кадра/секНазвание фильма                          : The.Foreigner.2003.1080p.AMZN.WEBRip.DD5.1.x264-FGTДата кодирования                         : 2023-06-10 09:57:11 UTCПрограмма кодирования                    : mkvmerge v67.0.0.27 ('Under Stars') 64-bitБиблиотека кодирования                   : libebml v1.4.2 + libmatroska v1.6.4Обложка                                  : YesAttachments                              : cover_land.jpg / small_cover.jpg / small_cover_land.jpg / cover.jpg
ВидеоИдентификатор : 1Формат : AVCФормат/Информация : Advanced Video CodecПрофиль формата : High@L4Настройки формата : CABAC / 4 Ref FramesПараметр CABAC формата : ДаПараметр RefFrames формата : 4 кадраИдентификатор кодека : V_MPEG4/ISO/AVCПродолжительность : 1 ч. 35 м.Вид битрейта : ПостоянныйБитрейт : 10 000 Кбит/секШирина : 1 920 пикселейВысота : 1 080 пикселейСоотношение сторон : 16:9Режим частоты кадров : ПостоянныйЧастота кадров : 23,976 (24000/1001) кадра/секЦветовое пространство : YUVСубдискретизация насыщенности : 4:2:0Битовая глубина : 8 битТип развёртки : ПрогрессивнаяБит/(Пиксели*Кадры) : 0.201Размер потока : 6,40 Гбайт (89%)Заголовок : The.Foreigner.2003.1080p.AMZN.WEBRip.DD5.1.x264-FGTЯзык : EnglishDefault : ДаForced : ДаЦветовой диапазон : LimitedОсновные цвета : BT.709Характеристики трансфера : BT.709Коэффициенты матрицы : BT.709
Аудио #1Идентификатор : 2Формат : AC-3Формат/Информация : Audio Coding 3Коммерческое название : Dolby DigitalИдентификатор кодека : A_AC3Продолжительность : 1 ч. 35 м.Вид битрейта : ПостоянныйБитрейт : 448 Кбит/секКаналы : 6 каналовChannel layout : L R C LFE Ls RsЧастота : 48,0 КГцЧастота кадров : 31,250 кадров/сек (1536 SPF)Метод сжатия : С потерямиРазмер потока : 308 Мбайт (4%)Заголовок : MVO | ВидеосервисЯзык : RussianService kind : Complete MainDefault : ДаForced : Да
Аудио #2Идентификатор : 3Формат : AC-3Формат/Информация : Audio Coding 3Коммерческое название : Dolby DigitalИдентификатор кодека : A_AC3Продолжительность : 1 ч. 35 м.Вид битрейта : ПостоянныйБитрейт : 192 Кбит/секКаналы : 2 каналаChannel layout : L RЧастота : 48,0 КГцЧастота кадров : 31,250 кадров/сек (1536 SPF)Метод сжатия : С потерямиРазмер потока : 132 Мбайт (2%)Заголовок : DVO | UKR 1+1 [Олександр Ігнатуша та Наталя Ярошенко]Язык : UkrainianService kind : Complete MainDefault : НетForced : Нет
Аудио #3Идентификатор : 4Формат : AC-3Формат/Информация : Audio Coding 3Коммерческое название : Dolby DigitalИдентификатор кодека : A_AC3Продолжительность : 1 ч. 35 м.Вид битрейта : ПостоянныйБитрейт : 192 Кбит/секКаналы : 2 каналаChannel layout : L RЧастота : 48,0 КГцЧастота кадров : 31,250 кадров/сек (1536 SPF)Метод сжатия : С потерямиРазмер потока : 132 Мбайт (2%)Заголовок : AVO | Сергей Визгунов [VHS Mono]Язык : RussianService kind : Complete MainDefault : НетForced : Нет
Аудио #4Идентификатор : 5Формат : AC-3Формат/Информация : Audio Coding 3Коммерческое название : Dolby DigitalИдентификатор кодека : A_AC3Продолжительность : 1 ч. 35 м.Вид битрейта : ПостоянныйБитрейт : 384 Кбит/секКаналы : 6 каналовChannel layout : L R C LFE Ls RsЧастота : 48,0 КГцЧастота кадров : 31,250 кадров/сек (1536 SPF)Метод сжатия : С потерямиРазмер потока : 264 Мбайт (4%)Заголовок : Original ENGЯзык : EnglishService kind : Complete MainDefault : НетForced : Нет
Текст #1Идентификатор : 6Формат : UTF-8Идентификатор кодека : S_TEXT/UTF8Идентификатор кодека/Информация : UTF-8 Plain TextПродолжительность : 1 ч. 30 м.Битрейт : 50 бит/секЧастота кадров : 0,219 кадр/секCount of elements : 1196Размер потока : 33,3 Кбайт (0%)Язык : EnglishDefault : НетForced : Нет
Текст #2Идентификатор : 7Формат : UTF-8Идентификатор кодека : S_TEXT/UTF8Идентификатор кодека/Информация : UTF-8 Plain TextПродолжительность : 1 ч. 31 м.Битрейт : 51 бит/секЧастота кадров : 0,231 кадр/секCount of elements : 1274Размер потока : 34,8 Кбайт (0%)Заголовок : SDHЯзык : EnglishDefault : НетForced : Нет

Запасной постер

Скриншоты

[Profile]  [PM] 
Display posts:    
Reply to topic

Current time is: 25-Jul 06:13

All times are UTC + 2



You cannot post new topics in this forum
You cannot reply to topics in this forum
You cannot edit your posts in this forum
You cannot delete your posts in this forum
You cannot vote in polls in this forum
You cannot attach files in this forum
You cannot download files in this forum