Ешь, Играй, Люби / Eat, Play, Love (Кристи Уилл / Christie Will Wolf) [2017, США, Канада, Мелодрама, комедия, WEB-DL 1080p] MVO (Киносвидание) + Original Eng + Sub eng

Reply to topic
 
Author
Message

Faust ®

Gender: Unknown

Longevity: 12 years

Posts: 23187

Reputation: 0 [+] [-]

Faust · Post 11-Jun-2023 16:25

[Quote] 

Ешь, Играй, Люби / Eat, Play, Love
Страна: США, Канада
Жанр: Мелодрама, комедия
Год выпуска: 2017
Продолжительность: 01:27:50
Перевод: Профессиональный (многоголосый закадровый) Киносвидание
Субтитры: английские
Оригинальная аудиодорожка: английский
Режиссер: Кристи Уилл / Christie Will Wolf
В ролях: Джен Лиллей, Джейсон Сермак, Ли Мэйджорс, Линдсей Вагнер, Люси Гест, Эмили Мэддисон, Эдуард Вицке, Кэндас Черчилль
Описание: Ветеринар Карли Монро устраивается работать в собачий приют, потому что обожает животных и влюблена во владельца приюта Дэна Лэндиса. К сожалению, он собирается жениться на гламурной телеведущей и должен будет переехать с ней в Нью-Йорк. Однако сестра Дэна пытается его переубедить и вместе с Карли она составляет план по возврату Дэна к Карли. Что из этого получилось Вы увидите в этой романтической мелодраме.
Сэмпл: http://sendfile.su/1669818
Качество видео: WEB-DL 1080p
Формат видео: mkv
Видео: AVC, 1920x1080 (16:9), 23.976 fps, 9365 Kbps (0.188 bit/pixel)
Аудио 1: AC-3, 48.0 KHz, 6 ch, 448 Kbps, CBR - русский
Аудио 2: E-AC-3, 48.0 KHz, 6 ch, 640 Kbps, CBR - английский

MediaInfo

GeneralUnique ID                                : 219434656460002726194964027451588264453 (0xA51593DBB5DC3F15A301465A632CC205)Complete name                            : H:\Eat.Play.Love.2017.1080p.AMZN.WEB-DL.DDP5.1.H.264-ABM.mkvFormat                                   : MatroskaFormat version                           : Version 2File size                                : 6.54 GiBDuration                                 : 1 h 27 minOverall bit rate                         : 10.7 Mb/sMovie name                               : Ешь, Играй, Люби / Eat, Play, Love (2017)Encoded date                             : UTC 2023-06-10 14:01:45Writing application                      : mkvmerge v8.2.0 ('World of Adventure') 64bitWriting library                          : libebml v1.3.1 + libmatroska v1.4.2
VideoID : 1Format : AVCFormat/Info : Advanced Video CodecFormat profile : High@L4Format settings : CABAC / 4 Ref FramesFormat settings, CABAC : YesFormat settings, RefFrames : 4 framesCodec ID : V_MPEG4/ISO/AVCDuration : 1 h 27 minBit rate mode : ConstantBit rate : 9 365 kb/sNominal bit rate : 10 000 kb/sWidth : 1 920 pixelsHeight : 1 080 pixelsDisplay aspect ratio : 16:9Frame rate mode : ConstantFrame rate : 23.976 (24000/1001) FPSColor space : YUVChroma subsampling : 4:2:0Bit depth : 8 bitsScan type : ProgressiveBits/(Pixel*Frame) : 0.188Stream size : 5.75 GiB (88%)Language : EnglishDefault : YesForced : NoColor range : LimitedColor primaries : BT.709Transfer characteristics : BT.709Matrix coefficients : BT.709
Audio #1ID : 2Format : AC-3Format/Info : Audio Coding 3Commercial name : Dolby DigitalCodec ID : A_AC3Duration : 1 h 27 minBit rate mode : ConstantBit rate : 448 kb/sChannel(s) : 6 channelsChannel layout : L R C LFE Ls RsSampling rate : 48.0 kHzFrame rate : 31.250 FPS (1536 SPF)Bit depth : 16 bitsCompression mode : LossyStream size : 281 MiB (4%)Title : Профессиональный (многоголосый закадровый) КиносвиданиеLanguage : RussianService kind : Complete MainDefault : YesForced : No
Audio #2ID : 3Format : E-AC-3Format/Info : Enhanced AC-3Commercial name : Dolby Digital PlusCodec ID : A_EAC3Duration : 1 h 27 minBit rate mode : ConstantBit rate : 640 kb/sChannel(s) : 6 channelsChannel layout : L R C LFE Ls RsSampling rate : 48.0 kHzFrame rate : 31.250 FPS (1536 SPF)Compression mode : LossyStream size : 402 MiB (6%)Language : EnglishService kind : Complete MainDefault : NoForced : No
TextID : 4Format : UTF-8Codec ID : S_TEXT/UTF8Codec ID/Info : UTF-8 Plain TextLanguage : EnglishDefault : NoForced : No

Скриншоты


[Profile]  [PM] 
Display posts:    
Reply to topic

Current time is: 20-Jul 03:36

All times are UTC + 2



You cannot post new topics in this forum
You cannot reply to topics in this forum
You cannot edit your posts in this forum
You cannot delete your posts in this forum
You cannot vote in polls in this forum
You cannot attach files in this forum
You cannot download files in this forum