Монтана / Montana / Killer Games / Nothing Personal (Дженнифер Лейцес / Jennifer Leitzes) [1998, США, боевик, криминал, драма, WEB-DL 1080p] MVO (Первый канал) + DVO (А. Дольский) + AVO (Интер) + Sub Eng + Original Eng

Reply to topic
 
Author
Message

Faust ®

Gender: Unknown

Longevity: 12 years

Posts: 23187

Reputation: 0 [+] [-]

Faust · Post 11-Jun-2023 16:25

[Quote] 

Монтана / Montana / Killer Games / Nothing Personal
Страна: США
Студия: Initial Entertainment Group (IEG), No Bones Productions, Zeta Entertainment Ltd.
Жанр: боевик, криминал, драма
Год выпуска: 1998
Продолжительность: 01:36:06
Перевод 1: Профессиональный (многоголосый закадровый) Первый канал
Перевод 2: Авторский (одноголосый закадровый) А. Дольский
Перевод 3: Профессиональный (двухголосый закадровый) Интер (украинский)
Субтитры: английские
Оригинальная аудиодорожка: английский
Режиссер: Дженнифер Лейцес / Jennifer Leitzes
В ролях: Кира Седжвик, Стэнли Туччи, Робин Танни, Робби Колтрейн, Джон Риттер, Итэн Эмбри,
Филип Сеймур Хоффман, Марк Бун Джуниор, Джерри Грэйсон, Пол Кальдерон
Описание: Клэр — настоящий профессионал своего дела, не допускающий промахов. Но она не актриса, не манекенщица и не врач, и её работу не предлагают в газетах: Клэр высококлассный киллер. Но наступает момент, когда за всё время верного и безупречного служения своему боссу, взамен она получает предательство и сама становится мишенью. Организация, предавшая свою музу убийства, не учла одного - того, на что способна разъярённая женщина.
Сэмпл: https://www.sendspace.com/file/a1105l
Тип релиза: WEB-DL 1080p
Контейнер: MKV
Видео: AVC, 1920x1080 (16:9), 23.976 fps, 13.9 Mbps (0.280 bit/pixel)
Аудио 1: AC-3, 48.0 KHz, 2 ch, 192 Kbps, CBR (Russian)
Аудио 2: AC-3, 48.0 KHz, 2 ch, 192 Kbps, CBR (Russian)
Аудио 3: AC-3, 48.0 KHz, 2 ch, 192 Kbps, CBR (Ukrainian)
Аудио 4: AC-3, 48.0 KHz, 2 ch, 192 Kbps, CBR (English)
Формат субтитров: softsub (SRT)

MediaInfo

GeneralUnique ID                                : 205529038586882677061305671009284783294 (0x9A9F73F6DC94796C835C719DB881FCBE)Complete name                            : C:\Users\User\Desktop\Montana.mkvFormat                                   : MatroskaFormat version                           : Version 2File size                                : 10.1 GiBDuration                                 : 1h 36mnOverall bit rate                         : 15.0 MbpsMovie name                               : Montana (1998) - Release for BLUEBIRDEncoded date                             : UTC 2020-02-29 18:29:36Writing application                      : mkvmerge v5.8.0 ('No Sleep / Pillow') built on Sep  2 2012 15:37:04Writing library                          : libebml v1.2.3 + libmatroska v1.3.0Attachements                             : cover.jpg
VideoID : 1Format : AVCFormat/Info : Advanced Video CodecFormat profile : High@L4.0Format settings, CABAC : YesFormat settings, ReFrames : 4 framesMuxing mode : Container profile=Unknown@0.0Codec ID : V_MPEG4/ISO/AVCDuration : 1h 36mnBit rate : 13.9 MbpsWidth : 1 920 pixelsHeight : 1 080 pixelsDisplay aspect ratio : 16:9Frame rate mode : ConstantFrame rate : 23.976 fpsColor space : YUVChroma subsampling : 4:2:0Bit depth : 8 bitsScan type : ProgressiveBits/(Pixel*Frame) : 0.280Stream size : 9.35 GiB (93%)Title : Montana (1998) - Release for BLUEBIRDLanguage : EnglishDefault : YesForced : NoColor primaries : BT.709Transfer characteristics : BT.709Matrix coefficients : BT.709
Audio #1ID : 2Format : AC-3Format/Info : Audio Coding 3Mode extension : CM (complete main)Format settings, Endianness : BigCodec ID : A_AC3Duration : 1h 36mnBit rate mode : ConstantBit rate : 192 KbpsChannel(s) : 2 channelsChannel positions : Front: L RSampling rate : 48.0 KHzBit depth : 16 bitsCompression mode : LossyStream size : 132 MiB (1%)Title : Многоголосый закадровый, Первый каналLanguage : RussianDefault : YesForced : No
Audio #2ID : 3Format : AC-3Format/Info : Audio Coding 3Mode extension : CM (complete main)Format settings, Endianness : BigCodec ID : A_AC3Duration : 1h 36mnBit rate mode : ConstantBit rate : 192 KbpsChannel(s) : 2 channelsChannel positions : Front: L RSampling rate : 48.0 KHzBit depth : 16 bitsCompression mode : LossyStream size : 132 MiB (1%)Title : Одноголосый закадровый, А.ДольскийLanguage : RussianDefault : NoForced : No
Audio #3ID : 4Format : AC-3Format/Info : Audio Coding 3Mode extension : CM (complete main)Format settings, Endianness : BigCodec ID : A_AC3Duration : 1h 36mnBit rate mode : ConstantBit rate : 192 KbpsChannel(s) : 2 channelsChannel positions : Front: L RSampling rate : 48.0 KHzBit depth : 16 bitsCompression mode : LossyStream size : 132 MiB (1%)Title : Двухголосый закадровый, ИнтерLanguage : UkrainianDefault : NoForced : No
Audio #4ID : 5Format : AC-3Format/Info : Audio Coding 3Mode extension : CM (complete main)Format settings, Endianness : BigCodec ID : A_AC3Duration : 1h 36mnBit rate mode : ConstantBit rate : 192 KbpsChannel(s) : 2 channelsChannel positions : Front: L RSampling rate : 48.0 KHzBit depth : 16 bitsCompression mode : LossyStream size : 132 MiB (1%)Language : EnglishDefault : NoForced : No
Text #1ID : 6Format : UTF-8Codec ID : S_TEXT/UTF8Codec ID/Info : UTF-8 Plain TextLanguage : EnglishDefault : NoForced : No
Text #2ID : 7Format : UTF-8Codec ID : S_TEXT/UTF8Codec ID/Info : UTF-8 Plain TextTitle : SDHLanguage : EnglishDefault : NoForced : No

Скриншоты

[Profile]  [PM] 
Display posts:    
Reply to topic

Current time is: 20-Jul 03:35

All times are UTC + 2



You cannot post new topics in this forum
You cannot reply to topics in this forum
You cannot edit your posts in this forum
You cannot delete your posts in this forum
You cannot vote in polls in this forum
You cannot attach files in this forum
You cannot download files in this forum