Помпеи / Pompeii (Пол У. С. Андерсон / Paul W.S. Anderson) [2014, Канада, Германия, США, боевик, драма, мелодрама, приключения, WEB-DL 1080p] [Open Matte] Dub + Sub Rus, Eng + Original Eng

Reply to topic
 
Author
Message

Faust ®

Gender: Unknown

Longevity: 12 years

Posts: 23187

Reputation: 0 [+] [-]

Faust · Post 12-Jun-2023 08:50

[Quote] 

Помпеи / Pompeii---Open Matte---
Страна: Канада, Германия, США
Студия: Constantin Film Produktion GmbH, Don Carmody Productions, FilmDistrict, Impact Pictures
Жанр: боевик, драма, мелодрама, приключения
Год выпуска: 2014
Продолжительность: 01:45:16
Перевод: Профессиональный (дублированный)
Субтитры: русские, английские (полные, для слабослышащих, комментарии), немецкие (полные, для слабослышащих), французские, испанские, итальянские, португальские (европейские, бразильские), албанские, арабские, бенгальские, болгарские, венгерские, вьетнамские, греческие, датские, иврит, индонезийские, китайскеи, корейские, малазийские, норвежские, польские, румынские, сербские, словенские, тайские, турецкие, фарси, финские, хорватские, чешские, шведские, эстонские, японские
Оригинальная аудиодорожка: английский

Режиссер: Пол У. С. Андерсон / Paul W.S. Anderson
В ролях: Кит Харингтон, Эмили Браунинг, Кифер Сазерленд, Адевале Акинойе-Агбаже, Джаред Харрис, Кэрри-Энн Мосс, Джессика Лукас, Саша Ройз, Джо Пинг, Карри Грэм
Описание: Сюжет фильма рассказывает историю о невероятной любви, которая произошла в древние века в Римской империи. Майло — маленький деревенский мальчишка, которому чудом удалось выжить после того, как римские солдаты напали на поселение и уничтожили всех ее жителей, включая и его семью. После этого страшного происшествия прошло несколько лет, за которые Майло сумел стать одним из самых сильных гладиаторов империи. Однако он не является свободным человеком, он — раб, жизнь которого принадлежит влиятельному хозяину. Однажды он прибывает в Помпеи, где должен пройти гладиаторский поединок, по итогам которого, лучшему бойцу будет дарована свобода. Именно здесь он встречает красавицу Кассию, дочь одного из самых богатых граждан города, который обещал отдать ее в жены римскому сенатору. Между молодыми людьми появляются взаимные чувства, но на их пути становится не только помолвка девушки, но и пробудившийся вулкан Везувий...--Исходная вебка добыта в рамках темы Фильмы в Fullscreen (4:3) и Open Matte (16:9) форматах. Русская дорожка и оригинал в DTS отсюда. Подогнано без пересжатия. Оригинал с вебки для сравнениея предоставлен в сэмпле.--Сэмпл | Кинопоиск | IMDb
Тип релиза: WEB-DL 1080p
Контейнер: MKV
Видео: 1920x1080 (16:9), 23.976 fps, AVC, ~5511 Kbps, 0.111 bits/pixel
Аудио 1: Russian, 48.0 KHz, DTS, 6 ch, 1509 Kbps - Dub Blu-Ray
Аудио 2: English, 48.0 KHz, DTS, 6 ch, 1509 Kbps - Original
Аудио 3: English, 48.0 KHz, AC3, 2 ch, 192 Kbps - Commentary with director Paul Anderson and producer Jeremy Bolt
Формат субтитров: softsub (SRT)

Сравнение

https://torrentsland.com.ua/forum/viewtopic.php?t=4752961---BDRip 1080p WEB-DL 1080p Open Matte--- -- -- -- -- -- --

MediaInfo

ОбщееУникальный идентификатор                 : 185696844593274373224967146144348844379 (0x8BB3E94EC2B514D1AF0C4641DC6D315B)Полное имя                               : U:\Vremyanka\Pompeii.2014.WEB-DL.1080p.Open.Matte.mkvФормат                                   : MatroskaВерсия формата                           : Version 4Размер файла                             : 6,71 ГбайтПродолжительность                        : 1 ч. 45 м.Общий поток                              : 9129 Кбит/секНазвание фильма                          : Pompeii.2014.WEB-DL.1080p.Open.Matte.AllFilms_tekoДата кодирования                         : UTC 2023-06-10 17:20:29Программа кодирования                    : mkvmerge v9.5.0 ('Quiet Fire') 64bitБиблиотека кодирования                   : libebml v1.3.4 + libmatroska v1.4.5Обложка                                  : YesAttachments                              : Pompeii.2014.3D.BD.jpg / Pompeii.2014.3D.BD.Cover.jpg / Pompeii.2014.BD.jpg / Pompeii.2014.BD.Cover.jpg / Pompeii.2014.BD.Front.Cover.jpg / Pompeii.2014.BD.Print.jpg / Pompeii.2014.BD.Pint.png / Pompeii.2014.DVD.Cover.Italian.jpg / Pompeii.2014.Plakat.jpg / Pompeii.2014.Poster.1.jpg / Pompeii.2014.Poster.2.jpg / Pompeii.2014.Poster.3.jpg / Pompeii.2014.Print.png / Pompeii.2014.Print.2.png / Pompeii.2014.Rus.Poster.jpg
ВидеоИдентификатор : 1Формат : AVCФормат/Информация : Advanced Video CodecПрофиль формата : High@L4Настройки формата : CABAC / 4 Ref FramesПараметр CABAC формата : ДаПараметр RefFrames формата : 4 кадраИдентификатор кодека : V_MPEG4/ISO/AVCПродолжительность : 1 ч. 45 м.Битрейт : 5630 Кбит/секШирина : 1920 пикселейВысота : 1080 пикселейСоотношение сторон : 16:9Режим частоты кадров : ПостоянныйЧастота кадров : 23,976 (24000/1001) кадра/секЦветовое пространство : YUVСубдискретизация насыщенности : 4:2:0Битовая глубина : 8 битТип развёртки : ПрогрессивнаяБит/(Пиксели*Кадры) : 0.113Размер потока : 4,14 Гбайт (62%)Заголовок : Pompeii.2014.WEB-DL.1080p.Open.MatteЯзык : EnglishDefault : ДаForced : Нет
Аудио #1Идентификатор : 2Формат : DTSФормат/Информация : Digital Theater SystemsИдентификатор кодека : A_DTSПродолжительность : 1 ч. 45 м.Вид битрейта : ПостоянныйБитрейт : 1510 Кбит/секКаналы : 6 каналовChannelLayout : C L R Ls Rs LFEЧастота : 48,0 КГцЧастота кадров : 93,750 кадра/сек (512 SPF)Битовая глубина : 24 битМетод сжатия : С потерямиРазмер потока : 1,11 Гбайт (17%)Заголовок : Dub Blu-RayЯзык : RussianDefault : ДаForced : Нет
Аудио #2Идентификатор : 3Формат : DTSФормат/Информация : Digital Theater SystemsИдентификатор кодека : A_DTSПродолжительность : 1 ч. 45 м.Вид битрейта : ПостоянныйБитрейт : 1510 Кбит/секКаналы : 6 каналовChannelLayout : C L R Ls Rs LFEЧастота : 48,0 КГцЧастота кадров : 93,750 кадра/сек (512 SPF)Битовая глубина : 24 битМетод сжатия : С потерямиРазмер потока : 1,11 Гбайт (17%)Заголовок : OriginalЯзык : EnglishDefault : НетForced : Нет
Аудио #3Идентификатор : 4Формат : E-AC-3Формат/Информация : Enhanced AC-3Коммерческое название : Dolby Digital PlusИдентификатор кодека : A_EAC3Продолжительность : 1 ч. 45 м.Вид битрейта : ПостоянныйБитрейт : 256 Кбит/секКаналы : 6 каналовChannelLayout : L R C LFE Ls RsЧастота : 48,0 КГцЧастота кадров : 31,250 кадров/сек (1536 SPF)Метод сжатия : С потерямиРазмер потока : 193 Мбайт (3%)Заголовок : OriginalЯзык : EnglishServiceKind/String : Complete MainDefault : НетForced : Нет
Аудио #4Идентификатор : 5Формат : AC-3Формат/Информация : Audio Coding 3Коммерческое название : Dolby DigitalИдентификатор кодека : A_AC3Продолжительность : 1 ч. 45 м.Вид битрейта : ПостоянныйБитрейт : 192 Кбит/секКаналы : 2 каналаChannelLayout : L RЧастота : 48,0 КГцЧастота кадров : 31,250 кадров/сек (1536 SPF)Метод сжатия : С потерямиРазмер потока : 144 Мбайт (2%)Заголовок : Commentary with director Paul Anderson and producer Jeremy BoltЯзык : EnglishServiceKind/String : Complete MainDefault : НетForced : Нет
Текст #1Идентификатор : 6Формат : UTF-8Идентификатор кодека : S_TEXT/UTF8Идентификатор кодека/Информация : UTF-8 Plain TextПродолжительность : 1 ч. 35 м.Битрейт : 51 бит/секElementCount : 769Размер потока : 36,2 Кбайт (0%)Заголовок : RussianЯзык : RussianDefault : НетForced : Нет
Текст #2Идентификатор : 7Формат : UTF-8Идентификатор кодека : S_TEXT/UTF8Идентификатор кодека/Информация : UTF-8 Plain TextПродолжительность : 1 ч. 31 м.Битрейт : 30 бит/секElementCount : 685Размер потока : 20,5 Кбайт (0%)Заголовок : English FullЯзык : EnglishDefault : НетForced : Нет
Текст #3Идентификатор : 8Формат : UTF-8Идентификатор кодека : S_TEXT/UTF8Идентификатор кодека/Информация : UTF-8 Plain TextПродолжительность : 1 ч. 33 м.Битрейт : 39 бит/секElementCount : 1128Размер потока : 26,9 Кбайт (0%)Заголовок : English SDH Blu-RayЯзык : EnglishDefault : НетForced : Нет
Текст #4Идентификатор : 9Формат : UTF-8Идентификатор кодека : S_TEXT/UTF8Идентификатор кодека/Информация : UTF-8 Plain TextПродолжительность : 1 ч. 33 м.Битрейт : 39 бит/секElementCount : 1135Размер потока : 27,1 Кбайт (0%)Заголовок : English SDH WEB-DLЯзык : EnglishDefault : НетForced : Нет
Текст #5Идентификатор : 10Формат : UTF-8Идентификатор кодека : S_TEXT/UTF8Идентификатор кодека/Информация : UTF-8 Plain TextПродолжительность : 1 ч. 38 м.Битрейт : 103 бит/секElementCount : 1450Размер потока : 74,5 Кбайт (0%)Заголовок : English commentary with director Paul Anderson and producer Jeremy BoltЯзык : EnglishDefault : НетForced : Нет
Текст #6Идентификатор : 11Формат : UTF-8Идентификатор кодека : S_TEXT/UTF8Идентификатор кодека/Информация : UTF-8 Plain TextПродолжительность : 1 ч. 31 м.Битрейт : 34 бит/секElementCount : 572Размер потока : 23,0 Кбайт (0%)Заголовок : GermanЯзык : GermanDefault : НетForced : Нет
Текст #7Идентификатор : 12Формат : UTF-8Идентификатор кодека : S_TEXT/UTF8Идентификатор кодека/Информация : UTF-8 Plain TextПродолжительность : 1 ч. 42 м.Битрейт : 41 бит/секElementCount : 951Размер потока : 31,3 Кбайт (0%)Заголовок : German SDHЯзык : GermanDefault : НетForced : Нет
Текст #8Идентификатор : 13Формат : UTF-8Идентификатор кодека : S_TEXT/UTF8Идентификатор кодека/Информация : UTF-8 Plain TextПродолжительность : 1 ч. 34 м.Битрейт : 26 бит/секElementCount : 733Размер потока : 18,4 Кбайт (0%)Заголовок : FrenchЯзык : FrenchDefault : НетForced : Нет
Текст #9Идентификатор : 14Формат : UTF-8Идентификатор кодека : S_TEXT/UTF8Идентификатор кодека/Информация : UTF-8 Plain TextПродолжительность : 1 ч. 34 м.Битрейт : 28 бит/секElementCount : 683Размер потока : 19,8 Кбайт (0%)Заголовок : SpanishЯзык : SpanishDefault : НетForced : Нет
Текст #10Идентификатор : 15Формат : UTF-8Идентификатор кодека : S_TEXT/UTF8Идентификатор кодека/Информация : UTF-8 Plain TextПродолжительность : 1 ч. 31 м.Битрейт : 31 бит/секElementCount : 567Размер потока : 21,4 Кбайт (0%)Заголовок : ItalianЯзык : ItalianDefault : НетForced : Нет
Текст #11Идентификатор : 16Формат : UTF-8Идентификатор кодека : S_TEXT/UTF8Идентификатор кодека/Информация : UTF-8 Plain TextПродолжительность : 1 ч. 38 м.Битрейт : 27 бит/секElementCount : 619Размер потока : 19,8 Кбайт (0%)Заголовок : Portuguese IberianЯзык : PortugueseDefault : НетForced : Нет
Текст #12Идентификатор : 17Формат : UTF-8Идентификатор кодека : S_TEXT/UTF8Идентификатор кодека/Информация : UTF-8 Plain TextПродолжительность : 1 ч. 36 м.Битрейт : 30 бит/секElementCount : 692Размер потока : 21,4 Кбайт (0%)Заголовок : Portuguese BrazilianЯзык : PortugueseDefault : НетForced : Нет
Текст #13Идентификатор : 18Формат : UTF-8Идентификатор кодека : S_TEXT/UTF8Идентификатор кодека/Информация : UTF-8 Plain TextПродолжительность : 1 ч. 35 м.Битрейт : 30 бит/секElementCount : 698Размер потока : 21,0 Кбайт (0%)Заголовок : AlbanianЯзык : AlbanianDefault : НетForced : Нет
Текст #14Идентификатор : 19Формат : UTF-8Идентификатор кодека : S_TEXT/UTF8Идентификатор кодека/Информация : UTF-8 Plain TextПродолжительность : 1 ч. 34 м.Битрейт : 42 бит/секElementCount : 708Размер потока : 29,6 Кбайт (0%)Заголовок : ArabicЯзык : ArabicDefault : НетForced : Нет
Текст #15Идентификатор : 20Формат : UTF-8Идентификатор кодека : S_TEXT/UTF8Идентификатор кодека/Информация : UTF-8 Plain TextПродолжительность : 1 ч. 33 м.Битрейт : 78 бит/секElementCount : 690Размер потока : 54,0 Кбайт (0%)Заголовок : BengaliЯзык : BengaliDefault : НетForced : Нет
Текст #16Идентификатор : 21Формат : UTF-8Идентификатор кодека : S_TEXT/UTF8Идентификатор кодека/Информация : UTF-8 Plain TextПродолжительность : 1 ч. 35 м.Битрейт : 47 бит/секElementCount : 532Размер потока : 33,3 Кбайт (0%)Заголовок : BulgarianЯзык : BulgarianDefault : НетForced : Нет
Текст #17Идентификатор : 22Формат : UTF-8Идентификатор кодека : S_TEXT/UTF8Идентификатор кодека/Информация : UTF-8 Plain TextПродолжительность : 1 ч. 36 м.Битрейт : 31 бит/секElementCount : 612Размер потока : 22,3 Кбайт (0%)Заголовок : HungarianЯзык : HungarianDefault : НетForced : Нет
Текст #18Идентификатор : 23Формат : UTF-8Идентификатор кодека : S_TEXT/UTF8Идентификатор кодека/Информация : UTF-8 Plain TextПродолжительность : 1 ч. 36 м.Битрейт : 39 бит/секElementCount : 701Размер потока : 27,8 Кбайт (0%)Заголовок : VietnameseЯзык : VietnameseDefault : НетForced : Нет
Текст #19Идентификатор : 24Формат : UTF-8Идентификатор кодека : S_TEXT/UTF8Идентификатор кодека/Информация : UTF-8 Plain TextПродолжительность : 1 ч. 34 м.Битрейт : 57 бит/секElementCount : 669Размер потока : 39,7 Кбайт (0%)Заголовок : GreekЯзык : GreekDefault : НетForced : Нет
Текст #20Идентификатор : 25Формат : UTF-8Идентификатор кодека : S_TEXT/UTF8Идентификатор кодека/Информация : UTF-8 Plain TextПродолжительность : 1 ч. 34 м.Битрейт : 26 бит/секElementCount : 586Размер потока : 18,5 Кбайт (0%)Заголовок : DanishЯзык : DanishDefault : НетForced : Нет
Текст #21Идентификатор : 26Формат : UTF-8Идентификатор кодека : S_TEXT/UTF8Идентификатор кодека/Информация : UTF-8 Plain TextПродолжительность : 1 ч. 36 м.Битрейт : 39 бит/секElementCount : 714Размер потока : 28,2 Кбайт (0%)Заголовок : HebrewЯзык : HebrewDefault : НетForced : Нет
Текст #22Идентификатор : 27Формат : UTF-8Идентификатор кодека : S_TEXT/UTF8Идентификатор кодека/Информация : UTF-8 Plain TextПродолжительность : 1 ч. 34 м.Битрейт : 32 бит/секElementCount : 741Размер потока : 22,6 Кбайт (0%)Заголовок : IndonesianЯзык : IndonesianDefault : НетForced : Нет
Текст #23Идентификатор : 28Формат : UTF-8Идентификатор кодека : S_TEXT/UTF8Идентификатор кодека/Информация : UTF-8 Plain TextПродолжительность : 1 ч. 37 м.Битрейт : 29 бит/секElementCount : 784Размер потока : 21,4 Кбайт (0%)Заголовок : Chinese SimplifiedЯзык : ChineseDefault : НетForced : Нет
Текст #24Идентификатор : 29Формат : UTF-8Идентификатор кодека : S_TEXT/UTF8Идентификатор кодека/Информация : UTF-8 Plain TextПродолжительность : 1 ч. 36 м.Битрейт : 37 бит/секElementCount : 724Размер потока : 26,7 Кбайт (0%)Заголовок : KoreanЯзык : KoreanDefault : НетForced : Нет
Текст #25Идентификатор : 30Формат : UTF-8Идентификатор кодека : S_TEXT/UTF8Идентификатор кодека/Информация : UTF-8 Plain TextПродолжительность : 1 ч. 36 м.Битрейт : 32 бит/секElementCount : 759Размер потока : 23,3 Кбайт (0%)Заголовок : MalayЯзык : MalayDefault : НетForced : Нет
Текст #26Идентификатор : 31Формат : UTF-8Идентификатор кодека : S_TEXT/UTF8Идентификатор кодека/Информация : UTF-8 Plain TextПродолжительность : 1 ч. 36 м.Битрейт : 61 бит/секElementCount : 759Размер потока : 43,3 Кбайт (0%)Заголовок : Malay ColoredЯзык : MalayDefault : НетForced : Нет
Текст #27Идентификатор : 32Формат : UTF-8Идентификатор кодека : S_TEXT/UTF8Идентификатор кодека/Информация : UTF-8 Plain TextПродолжительность : 1 ч. 31 м.Битрейт : 97 бит/секElementCount : 756Размер потока : 65,5 Кбайт (0%)Заголовок : MalayalamЯзык : MalayalamDefault : НетForced : Нет
Текст #28Идентификатор : 33Формат : UTF-8Идентификатор кодека : S_TEXT/UTF8Идентификатор кодека/Информация : UTF-8 Plain TextПродолжительность : 1 ч. 34 м.Битрейт : 27 бит/секElementCount : 585Размер потока : 18,8 Кбайт (0%)Заголовок : NorvegianЯзык : NorwegianDefault : НетForced : Нет
Текст #29Идентификатор : 34Формат : UTF-8Идентификатор кодека : S_TEXT/UTF8Идентификатор кодека/Информация : UTF-8 Plain TextПродолжительность : 1 ч. 34 м.Битрейт : 32 бит/секElementCount : 694Размер потока : 22,8 Кбайт (0%)Заголовок : PolishЯзык : PolishDefault : НетForced : Нет
Текст #30Идентификатор : 35Формат : UTF-8Идентификатор кодека : S_TEXT/UTF8Идентификатор кодека/Информация : UTF-8 Plain TextПродолжительность : 1 ч. 35 м.Битрейт : 34 бит/секElementCount : 757Размер потока : 23,8 Кбайт (0%)Заголовок : RomanianЯзык : RomanianDefault : НетForced : Нет
Текст #31Идентификатор : 36Формат : UTF-8Идентификатор кодека : S_TEXT/UTF8Идентификатор кодека/Информация : UTF-8 Plain TextПродолжительность : 1 ч. 36 м.Битрейт : 28 бит/секElementCount : 541Размер потока : 20,3 Кбайт (0%)Заголовок : SerbianЯзык : SerbianDefault : НетForced : Нет
Текст #32Идентификатор : 37Формат : UTF-8Идентификатор кодека : S_TEXT/UTF8Идентификатор кодека/Информация : UTF-8 Plain TextПродолжительность : 1 ч. 34 м.Битрейт : 27 бит/секElementCount : 551Размер потока : 19,0 Кбайт (0%)Заголовок : SlovenianЯзык : SlovenianDefault : НетForced : Нет
Текст #33Идентификатор : 38Формат : UTF-8Идентификатор кодека : S_TEXT/UTF8Идентификатор кодека/Информация : UTF-8 Plain TextПродолжительность : 1 ч. 34 м.Битрейт : 70 бит/секElementCount : 705Размер потока : 49,2 Кбайт (0%)Заголовок : ThaiЯзык : ThaiDefault : НетForced : Нет
Текст #34Идентификатор : 39Формат : UTF-8Идентификатор кодека : S_TEXT/UTF8Идентификатор кодека/Информация : UTF-8 Plain TextПродолжительность : 1 ч. 35 м.Битрейт : 33 бит/секElementCount : 635Размер потока : 23,1 Кбайт (0%)Заголовок : TurkishЯзык : TurkishDefault : НетForced : Нет
Текст #35Идентификатор : 40Формат : UTF-8Идентификатор кодека : S_TEXT/UTF8Идентификатор кодека/Информация : UTF-8 Plain TextПродолжительность : 1 ч. 34 м.Битрейт : 50 бит/секElementCount : 746Размер потока : 35,3 Кбайт (0%)Заголовок : PersianЯзык : PersianDefault : НетForced : Нет
Текст #36Идентификатор : 41Формат : UTF-8Идентификатор кодека : S_TEXT/UTF8Идентификатор кодека/Информация : UTF-8 Plain TextПродолжительность : 1 ч. 36 м.Битрейт : 30 бит/секElementCount : 534Размер потока : 21,7 Кбайт (0%)Заголовок : FinnishЯзык : FinnishDefault : НетForced : Нет
Текст #37Идентификатор : 42Формат : UTF-8Идентификатор кодека : S_TEXT/UTF8Идентификатор кодека/Информация : UTF-8 Plain TextПродолжительность : 1 ч. 34 м.Битрейт : 29 бит/секElementCount : 539Размер потока : 20,3 Кбайт (0%)Заголовок : CroatianЯзык : CroatianDefault : НетForced : Нет
Текст #38Идентификатор : 43Формат : UTF-8Идентификатор кодека : S_TEXT/UTF8Идентификатор кодека/Информация : UTF-8 Plain TextПродолжительность : 1 ч. 35 м.Битрейт : 29 бит/секElementCount : 684Размер потока : 20,5 Кбайт (0%)Заголовок : CzechЯзык : CzechDefault : НетForced : Нет
Текст #39Идентификатор : 44Формат : UTF-8Идентификатор кодека : S_TEXT/UTF8Идентификатор кодека/Информация : UTF-8 Plain TextПродолжительность : 1 ч. 35 м.Битрейт : 31 бит/секElementCount : 704Размер потока : 22,0 Кбайт (0%)Заголовок : SwedishЯзык : SwedishDefault : НетForced : Нет
Текст #40Идентификатор : 45Формат : UTF-8Идентификатор кодека : S_TEXT/UTF8Идентификатор кодека/Информация : UTF-8 Plain TextПродолжительность : 1 ч. 34 м.Битрейт : 26 бит/секElementCount : 533Размер потока : 18,2 Кбайт (0%)Заголовок : EstonianЯзык : EstonianDefault : НетForced : Нет
Текст #41Идентификатор : 46Формат : UTF-8Идентификатор кодека : S_TEXT/UTF8Идентификатор кодека/Информация : UTF-8 Plain TextПродолжительность : 1 ч. 34 м.Битрейт : 35 бит/секElementCount : 758Размер потока : 24,5 Кбайт (0%)Заголовок : JapaneseЯзык : JapaneseDefault : НетForced : Нет
Меню00:00:00.000 : en:Chapter 100:05:38.862 : en:Chapter 200:10:03.459 : en:Chapter 300:16:10.242 : en:Chapter 400:20:04.643 : en:Chapter 500:26:56.888 : en:Chapter 600:32:48.406 : en:Chapter 700:38:30.623 : en:Chapter 800:47:47.596 : en:Chapter 900:52:29.503 : en:Chapter 1001:03:37.003 : en:Chapter 1101:09:14.715 : en:Chapter 1201:17:39.094 : en:Chapter 1301:23:58.306 : en:Chapter 1401:30:15.934 : en:Chapter 1501:35:19.904 : en:Chapter 16
Релиз группы:
--
[Profile]  [PM] 
Display posts:    
Reply to topic

Current time is: 20-Jul 03:32

All times are UTC + 2



You cannot post new topics in this forum
You cannot reply to topics in this forum
You cannot edit your posts in this forum
You cannot delete your posts in this forum
You cannot vote in polls in this forum
You cannot attach files in this forum
You cannot download files in this forum