Страна теней / Царство теней / Shadowlands (Ричард Аттенборо / Richard Attenborough) [1993, Великобритания, драма, биография, BDRemux 1080p] MVO (НТВ+) + MVO (Культура) + MVO (Paramount Channel) + AVO (Антон Алексеев) + Sub Eng + Original Eng

Reply to topic
 
Author
Message

Faust ®

Gender: Unknown

Longevity: 12 years

Posts: 23217

Reputation: 0 [+] [-]

Faust · Post 12-Jun-2023 08:50

[Quote] 

Страна теней / Царство теней / Shadowlands---USA Transfer | Universal Studios---
Страна: Великобритания
Студия: Price Entertainment, Shadowlands Productions, Spelling Films International
Жанр: драма, биография
Год выпуска: 1993
Продолжительность: 02:11:44
Перевод: Профессиональный (многоголосый закадровый) - НТВ+
Перевод: Профессиональный (многоголосый закадровый) - Культура
Перевод: Профессиональный (многоголосый закадровый) - Paramount Channel
Перевод: Авторский (одноголосый закадровый) - Антон Алексеев
Субтитры: английские (полные, для слабослышащих), французские, испанские, итальянские, португальские (европейские, бразильские), арабские, болгарские, венгерские, голландские, иврит, корейские, польские, румынские, сербские, словенские, тайские, турецкие, фарси, хорватские, чешские, шведские
Оригинальная аудиодорожка: английский

Режиссер: Ричард Аттенборо / Richard Attenborough
В ролях: Энтони Хопкинс, Дебра Уингер, Джулиан Феллоуз, Родди Мод-Роксби, Майкл Дэнисон, Эндрю Сиар, Тим МакМуллан, Джон Вуд, Эндрю Хоукинс, Питер Хауэлл
Описание: Фильм основан на реальных событиях. Действие разворачивается в Оксфорде в 1950-х годах. Фильм повествует об истории трагической любви Льюиса к Джой Грэшем и их короткой супружеской жизни, прерванной её смертью от рака.--
Исходник - Shadowlands.1993.1080p.BluRay.Remux.AVC.FLAC.2.0-PmP. Добавлены русские дорожки отсюда и отсюда. Спасибо vedigo, KSUX@, Strongarm и danaEXE! Синхронизация на моей совести. Обложка соответствует изданию.
--Сэмпл | Кинопоиск | IMDb
Тип релиза: BDRemux 1080p
Контейнер: MKV
Видео: 1920x1080 (16:9), 23.976 fps, 37679 kbps, AVC
Аудио 1: Russian, 48.0 KHz, AC3, 2 ch, 192 Kbps - MVO НТВ+
Аудио 2: Russian, 48.0 KHz, AC3, 2 ch, 192 Kbps - MVO ТК Культура
Аудио 3: Russian, 48.0 KHz, AC3, 2 ch, 192 Kbps - MVO Paramount Channel
Аудио 4: Russian, 48.0 KHz, AC3, 2 ch, 192 Kbps - AVO Антон Алексеев
Аудио 5: English, 48.0 KHz, FLAC, 2 ch, 1212 kbps - Original
Формат субтитров: softsub (SRT)

MediaInfo

ОбщееУникальный идентификатор                 : 219955594870292446414663728613700163485 (0xA579E81AD84A18FF9CBF87797954579D)Полное имя                               : U:\Vremyanka\Shadowlands.1993.Universal.Studios.BDRemux.1080p.mkvФормат                                   : MatroskaВерсия формата                           : Version 4Размер файла                             : 36,6 ГбайтПродолжительность                        : 2 ч. 11 м.Режим общего битрейта                    : ПеременныйОбщий поток                              : 39,8 Мбит/секНазвание фильма                          : Shadowlands.1993.Universal.Studios.BDRemux.1080p_AllFilms_tekoДата кодирования                         : UTC 2023-06-01 14:32:33Программа кодирования                    : mkvmerge v9.5.0 ('Quiet Fire') 64bitБиблиотека кодирования                   : libebml v1.3.4 + libmatroska v1.4.5Обложка                                  : YesAttachments                              : Shadowlands.1993.Afisha.jpg / Shadowlands.1993.BD.Cover.jpg / Shadowlands.1993.BD.Front.Cover.png / Shadowlands.1993.Poster.jpg
ВидеоИдентификатор : 1Формат : AVCФормат/Информация : Advanced Video CodecПрофиль формата : High@L4.1Настройки формата : CABAC / 2 Ref FramesПараметр CABAC формата : ДаПараметр RefFrames формата : 2 кадраПараметр GOP формата : M=1, N=5Идентификатор кодека : V_MPEG4/ISO/AVCПродолжительность : 2 ч. 11 м.Вид битрейта : ПеременныйБитрейт : 37,7 Мбит/секМаксимальный битрейт : 38,2 Мбит/секШирина : 1920 пикселейВысота : 1080 пикселейСоотношение сторон : 16:9Режим частоты кадров : ПостоянныйЧастота кадров : 23,976 (24000/1001) кадра/секЦветовое пространство : YUVСубдискретизация насыщенности : 4:2:0Битовая глубина : 8 битТип развёртки : ПрогрессивнаяБит/(Пиксели*Кадры) : 0.758Размер потока : 34,7 Гбайт (95%)Заголовок : Shadowlands.1993.Universal.Studios.BDRemux.1080pЯзык : EnglishDefault : ДаForced : Нет
Аудио #1Идентификатор : 2Формат : AC-3Формат/Информация : Audio Coding 3Коммерческое название : Dolby DigitalИдентификатор кодека : A_AC3Продолжительность : 2 ч. 11 м.Вид битрейта : ПостоянныйБитрейт : 192 Кбит/секКаналы : 2 каналаChannelLayout : L RЧастота : 48,0 КГцЧастота кадров : 31,250 кадров/сек (1536 SPF)Метод сжатия : С потерямиРазмер потока : 181 Мбайт (0%)Заголовок : MVO НТВ+Язык : RussianServiceKind/String : Complete MainDefault : ДаForced : Нет
Аудио #2Идентификатор : 3Формат : AC-3Формат/Информация : Audio Coding 3Коммерческое название : Dolby DigitalИдентификатор кодека : A_AC3Продолжительность : 2 ч. 11 м.Вид битрейта : ПостоянныйБитрейт : 192 Кбит/секКаналы : 2 каналаChannelLayout : L RЧастота : 48,0 КГцЧастота кадров : 31,250 кадров/сек (1536 SPF)Метод сжатия : С потерямиРазмер потока : 181 Мбайт (0%)Заголовок : MVO ТК КультураЯзык : RussianServiceKind/String : Complete MainDefault : НетForced : Нет
Аудио #3Идентификатор : 4Формат : AC-3Формат/Информация : Audio Coding 3Коммерческое название : Dolby DigitalИдентификатор кодека : A_AC3Продолжительность : 2 ч. 11 м.Вид битрейта : ПостоянныйБитрейт : 192 Кбит/секКаналы : 2 каналаChannelLayout : L RЧастота : 48,0 КГцЧастота кадров : 31,250 кадров/сек (1536 SPF)Метод сжатия : С потерямиРазмер потока : 181 Мбайт (0%)Заголовок : MVO Paramount ChannelЯзык : RussianServiceKind/String : Complete MainDefault : НетForced : Нет
Аудио #4Идентификатор : 5Формат : AC-3Формат/Информация : Audio Coding 3Коммерческое название : Dolby DigitalИдентификатор кодека : A_AC3Продолжительность : 2 ч. 11 м.Вид битрейта : ПостоянныйБитрейт : 192 Кбит/секКаналы : 2 каналаChannelLayout : L RЧастота : 48,0 КГцЧастота кадров : 31,250 кадров/сек (1536 SPF)Метод сжатия : С потерямиРазмер потока : 181 Мбайт (0%)Заголовок : AVO Антон АлексеевЯзык : RussianServiceKind/String : Complete MainDefault : НетForced : Нет
Аудио #5Идентификатор : 6Формат : FLACФормат/Информация : Free Lossless Audio CodecИдентификатор кодека : A_FLACПродолжительность : 2 ч. 11 м.Вид битрейта : ПеременныйБитрейт : 1313 Кбит/секКаналы : 2 каналаChannelLayout : L RЧастота : 48,0 КГцЧастота кадров : 11,719 кадров/сек (4096 SPF)Битовая глубина : 24 битМетод сжатия : Без потерьРазмер потока : 1,21 Гбайт (3%)Заголовок : OriginalБиблиотека кодирования : libFLAC 1.2.1 (UTC 2007-09-17)Язык : EnglishDefault : НетForced : Нет
Текст #1Идентификатор : 7Формат : UTF-8Идентификатор кодека : S_TEXT/UTF8Идентификатор кодека/Информация : UTF-8 Plain TextПродолжительность : 2 ч. 2 м.Битрейт : 61 бит/секElementCount : 1838Размер потока : 55,3 Кбайт (0%)Заголовок : English FullЯзык : EnglishDefault : НетForced : Нет
Текст #2Идентификатор : 8Формат : UTF-8Идентификатор кодека : S_TEXT/UTF8Идентификатор кодека/Информация : UTF-8 Plain TextПродолжительность : 2 ч. 5 м.Битрейт : 60 бит/секElementCount : 1977Размер потока : 56,0 Кбайт (0%)Заголовок : English SDHЯзык : EnglishDefault : НетForced : Нет
Текст #3Идентификатор : 9Формат : PGSИдентификатор кодека : S_HDMV/PGSИдентификатор кодека/Информация : Picture based subtitle format used on BDs/HD-DVDsПродолжительность : 2 ч. 7 м.Битрейт : 38,8 Кбит/секElementCount : 3777Размер потока : 35,4 Мбайт (0%)Заголовок : English SDHЯзык : EnglishDefault : НетForced : Нет
Текст #4Идентификатор : 10Формат : UTF-8Идентификатор кодека : S_TEXT/UTF8Идентификатор кодека/Информация : UTF-8 Plain TextПродолжительность : 2 ч. 2 м.Битрейт : 42 бит/секElementCount : 1391Размер потока : 37,9 Кбайт (0%)Заголовок : FrenchЯзык : FrenchDefault : НетForced : Нет
Текст #5Идентификатор : 11Формат : UTF-8Идентификатор кодека : S_TEXT/UTF8Идентификатор кодека/Информация : UTF-8 Plain TextПродолжительность : 2 ч. 11 м.Битрейт : 58 бит/секElementCount : 1531Размер потока : 56,3 Кбайт (0%)Заголовок : SpanishЯзык : SpanishDefault : НетForced : Нет
Текст #6Идентификатор : 12Формат : UTF-8Идентификатор кодека : S_TEXT/UTF8Идентификатор кодека/Информация : UTF-8 Plain TextПродолжительность : 2 ч. 3 м.Битрейт : 59 бит/секElementCount : 1524Размер потока : 53,8 Кбайт (0%)Заголовок : ItalianЯзык : ItalianDefault : НетForced : Нет
Текст #7Идентификатор : 13Формат : UTF-8Идентификатор кодека : S_TEXT/UTF8Идентификатор кодека/Информация : UTF-8 Plain TextПродолжительность : 2 ч. 7 м.Битрейт : 55 бит/секElementCount : 1740Размер потока : 51,7 Кбайт (0%)Заголовок : Portuguese IberianЯзык : PortugueseDefault : НетForced : Нет
Текст #8Идентификатор : 14Формат : UTF-8Идентификатор кодека : S_TEXT/UTF8Идентификатор кодека/Информация : UTF-8 Plain TextПродолжительность : 2 ч. 5 м.Битрейт : 49 бит/секElementCount : 1523Размер потока : 45,7 Кбайт (0%)Заголовок : Portuguese BrazilianЯзык : PortugueseDefault : НетForced : Нет
Текст #9Идентификатор : 15Формат : UTF-8Идентификатор кодека : S_TEXT/UTF8Идентификатор кодека/Информация : UTF-8 Plain TextПродолжительность : 2 ч. 5 м.Битрейт : 87 бит/секElementCount : 1834Размер потока : 80,5 Кбайт (0%)Заголовок : ArabicЯзык : ArabicDefault : НетForced : Нет
Текст #10Идентификатор : 16Формат : UTF-8Идентификатор кодека : S_TEXT/UTF8Идентификатор кодека/Информация : UTF-8 Plain TextПродолжительность : 2 ч. 6 м.Битрейт : 77 бит/секElementCount : 1136Размер потока : 72,0 Кбайт (0%)Заголовок : BulgarianЯзык : BulgarianDefault : НетForced : Нет
Текст #11Идентификатор : 17Формат : UTF-8Идентификатор кодека : S_TEXT/UTF8Идентификатор кодека/Информация : UTF-8 Plain TextПродолжительность : 2 ч. 10 м.Битрейт : 57 бит/секElementCount : 1537Размер потока : 54,8 Кбайт (0%)Заголовок : HungarianЯзык : HungarianDefault : НетForced : Нет
Текст #12Идентификатор : 18Формат : UTF-8Идентификатор кодека : S_TEXT/UTF8Идентификатор кодека/Информация : UTF-8 Plain TextПродолжительность : 2 ч. 3 м.Битрейт : 55 бит/секElementCount : 1362Размер потока : 49,7 Кбайт (0%)Заголовок : DutchЯзык : DutchDefault : НетForced : Нет
Текст #13Идентификатор : 19Формат : UTF-8Идентификатор кодека : S_TEXT/UTF8Идентификатор кодека/Информация : UTF-8 Plain TextПродолжительность : 2 ч. 8 м.Битрейт : 75 бит/секElementCount : 1433Размер потока : 71,2 Кбайт (0%)Заголовок : HebrewЯзык : HebrewDefault : НетForced : Нет
Текст #14Идентификатор : 20Формат : UTF-8Идентификатор кодека : S_TEXT/UTF8Идентификатор кодека/Информация : UTF-8 Plain TextПродолжительность : 2 ч. 2 м.Битрейт : 65 бит/секElementCount : 1598Размер потока : 58,6 Кбайт (0%)Заголовок : KoreanЯзык : KoreanDefault : НетForced : Нет
Текст #15Идентификатор : 21Формат : UTF-8Идентификатор кодека : S_TEXT/UTF8Идентификатор кодека/Информация : UTF-8 Plain TextПродолжительность : 2 ч. 6 м.Битрейт : 58 бит/секElementCount : 1638Размер потока : 54,2 Кбайт (0%)Заголовок : PolishЯзык : PolishDefault : НетForced : Нет
Текст #16Идентификатор : 22Формат : UTF-8Идентификатор кодека : S_TEXT/UTF8Идентификатор кодека/Информация : UTF-8 Plain TextПродолжительность : 2 ч. 5 м.Битрейт : 57 бит/секElementCount : 1528Размер потока : 53,1 Кбайт (0%)Заголовок : RomaianЯзык : RomanianDefault : НетForced : Нет
Текст #17Идентификатор : 23Формат : UTF-8Идентификатор кодека : S_TEXT/UTF8Идентификатор кодека/Информация : UTF-8 Plain TextПродолжительность : 2 ч. 6 м.Битрейт : 51 бит/секElementCount : 1443Размер потока : 47,7 Кбайт (0%)Заголовок : SerbianЯзык : SerbianDefault : НетForced : Нет
Текст #18Идентификатор : 24Формат : UTF-8Идентификатор кодека : S_TEXT/UTF8Идентификатор кодека/Информация : UTF-8 Plain TextПродолжительность : 2 ч. 6 м.Битрейт : 50 бит/секElementCount : 1433Размер потока : 47,0 Кбайт (0%)Заголовок : SlovenianЯзык : SlovenianDefault : НетForced : Нет
Текст #19Идентификатор : 25Формат : UTF-8Идентификатор кодека : S_TEXT/UTF8Идентификатор кодека/Информация : UTF-8 Plain TextПродолжительность : 2 ч. 8 м.Битрейт : 134 бит/секElementCount : 1844Размер потока : 127 Кбайт (0%)Заголовок : ThaiЯзык : ThaiDefault : НетForced : Нет
Текст #20Идентификатор : 26Формат : UTF-8Идентификатор кодека : S_TEXT/UTF8Идентификатор кодека/Информация : UTF-8 Plain TextПродолжительность : 2 ч. 5 м.Битрейт : 62 бит/секElementCount : 1529Размер потока : 57,3 Кбайт (0%)Заголовок : TurkishЯзык : TurkishDefault : НетForced : Нет
Текст #21Идентификатор : 27Формат : UTF-8Идентификатор кодека : S_TEXT/UTF8Идентификатор кодека/Информация : UTF-8 Plain TextПродолжительность : 2 ч. 3 м.Битрейт : 90 бит/секElementCount : 1502Размер потока : 82,0 Кбайт (0%)Заголовок : PersianЯзык : PersianDefault : НетForced : Нет
Текст #22Идентификатор : 28Формат : UTF-8Идентификатор кодека : S_TEXT/UTF8Идентификатор кодека/Информация : UTF-8 Plain TextПродолжительность : 2 ч. 6 м.Битрейт : 50 бит/секElementCount : 1524Размер потока : 47,1 Кбайт (0%)Заголовок : CroatianЯзык : CroatianDefault : НетForced : Нет
Текст #23Идентификатор : 29Формат : UTF-8Идентификатор кодека : S_TEXT/UTF8Идентификатор кодека/Информация : UTF-8 Plain TextПродолжительность : 2 ч. 5 м.Битрейт : 52 бит/секElementCount : 1082Размер потока : 48,4 Кбайт (0%)Заголовок : CzechЯзык : CzechDefault : НетForced : Нет
Текст #24Идентификатор : 30Формат : UTF-8Идентификатор кодека : S_TEXT/UTF8Идентификатор кодека/Информация : UTF-8 Plain TextПродолжительность : 2 ч. 3 м.Битрейт : 45 бит/секElementCount : 1079Размер потока : 41,6 Кбайт (0%)Заголовок : SwedishЯзык : SwedishDefault : НетForced : Нет
Меню00:00:00.000 : en:Chapter 100:10:00.600 : en:Chapter 200:20:01.200 : en:Chapter 300:30:01.800 : en:Chapter 400:40:02.400 : en:Chapter 500:50:03.000 : en:Chapter 601:00:03.600 : en:Chapter 701:10:04.200 : en:Chapter 801:20:04.800 : en:Chapter 901:30:05.400 : en:Chapter 1001:40:06.000 : en:Chapter 1101:50:06.600 : en:Chapter 1202:00:07.200 : en:Chapter 1302:11:17.870 : en:Chapter 14

Скриншоты

Релиз группы:
--
[Profile]  [PM] 
Display posts:    
Reply to topic

Current time is: 25-Jul 06:36

All times are UTC + 2



You cannot post new topics in this forum
You cannot reply to topics in this forum
You cannot edit your posts in this forum
You cannot delete your posts in this forum
You cannot vote in polls in this forum
You cannot attach files in this forum
You cannot download files in this forum