Там, где деньги / Where the Money Is (Марек Каневска / Marek Kanievska) [2000, Германия, США, Великобритания, Канада, комедия, криминал, драма, HDRip] AVO (Юрий Сербин)

Reply to topic
 
Author
Message

Satyr ®

Gender: Unknown

Longevity: 15 years

Posts: 22031

Reputation: 56 [+] [-]

Satyr · Post 12-Jun-2023 08:50

[Quote] 

Там, где деньги / Where the Money Is
Страна: Германия, США, Великобритания, Канада
Жанр: комедия, криминал, драма
Год выпуска: 2000
Продолжительность: 01:28:45
Перевод: Авторский (одноголосый закадровый) Юрий Сербин
Субтитры: нет
Режиссер: Марек Каневска / Marek Kanievska
В ролях: Пол Ньюман, Линда Фиорентино, Дермот Малруни, Сьюзэн Барнс, Энн Питониак, Брюс МакВитти, Ирма Ст. Пауле, Мишель Перрон
Описание: Легендарный грабитель банка Генри Мэннинг оказывается в тюрьме, где он переносит обширный инсульт. Он помещен в тюремную больницу на попечении Кэрол Энн Маккей, квалифицированной пожилой медсестры. Вскоре, после того, как Кэрол начинает подозревать, что Генри не так-то болен, она отправляется в отпуск домой, где ее ждет муж Уэйн, бывший когда-то звездой футбольной команды школы, когда и она была королевой красоты. Она и Генри придумали в больнице кое-какой интересный план...
Доп. информация: Выражаю огромную благодарность Виктору Видеопиратову, за дорогу с Юрием Сербиным.

Сэмпл: https://disk.yandex.ru/i/fvPSDFeNDhd6uQ
Качество видео: HDRip (Исходник BDRip 1080p)
Формат видео: AVI
Видео: XviD 73, 720x400, (16:9), 23,976 fps, 2109 Кбит/с, 8 бит, 0.30 bit/pixel
Аудио: Русский (АС3, 2 ch (Front: L R), 48,0 KHz, 224 Kbps)

MediaInfo

ОбщееПолное имя                               : F:\На трекер\Там, где деньги  (комедия, криминал, драма 2000 год).aviФормат                                   : AVIФормат/Информация                        : Audio Video InterleaveРазмер файла                             : 1,45 ГбайтПродолжительность                        : 1 ч. 28 м.Общий поток                              : 2342 Кбит/секПрограмма кодирования                    : VirtualDubMod 1.5.10.2 (build 2540/release)Библиотека кодирования                   : VirtualDubMod build 2540/release
ВидеоИдентификатор : 0Формат : MPEG-4 VisualПрофиль формата : Advanced Simple@L5Параметр BVOP формата : 2Параметр QPel формата : НетПараметр GMC формата : Без точки переходаПараметр матрицы формата : ВыборочнаяИдентификатор кодека : XVIDИдентификатор кодека/Подсказка : XviDПродолжительность : 1 ч. 28 м.Битрейт : 2109 Кбит/секШирина : 720 пикселейВысота : 400 пикселейСоотношение сторон : 16:9Частота кадров : 23,976 (23976/1000) кадра/секЦветовое пространство : YUVСубдискретизация насыщенности : 4:2:0Битовая глубина : 8 битТип развёртки : ПрогрессивнаяМетод сжатия : С потерямиБит/(Пиксели*Кадры) : 0.305Размер потока : 1,31 Гбайт (90%)Библиотека кодирования : XviD 73
АудиоИдентификатор : 1Формат : AC-3Формат/Информация : Audio Coding 3Расширение режима : CM (complete main)Параметр Endianness формата : BigИдентификатор кодека : 2000Продолжительность : 1 ч. 28 м.Вид битрейта : ПостоянныйБитрейт : 224 Кбит/секКаналы : 2 каналаРасположение каналов : Front: L RЧастота : 48,0 КГцЧастота кадров : 31,250 кадров/сек (1536 spf)Метод сжатия : С потерямиРазмер потока : 142 Мбайт (10%)Выравнивание : Разделение по промежуткамПродолжительность промежутка : 42 мс. (1,00 видеокадр)Время предзагрузки промежутка : 500 мс.

Скриншот c названием фильма

Скриншоты

[Profile]  [PM] 
Display posts:    
Reply to topic

Current time is: 20-Jul 03:30

All times are UTC + 2



You cannot post new topics in this forum
You cannot reply to topics in this forum
You cannot edit your posts in this forum
You cannot delete your posts in this forum
You cannot vote in polls in this forum
You cannot attach files in this forum
You cannot download files in this forum