Форт Саган / Fort Saganne (Ален Корно / Alain Corneau) [1984, Франция, драма, военный, история, HDTVRip-AVC] MVO (Останкино) + MVO (НТВ+) + Original Fra

Reply to topic
 
Author
Message

Satyr ®

Online

Gender: Unknown

Longevity: 15 years

Posts: 22035

Reputation: 56 [+] [-]

Satyr · Post 12-Jun-2023 12:55

[Quote] 

Форт Саган / Fort Saganne
Страна: Франция
Жанр: Драма, Военный, История
Год выпуска: 1984
Продолжительность: 02:53:56
Перевод: Профессиональный (многоголосый закадровый) Останкино
Перевод 2: Профессиональный (многоголосый закадровый) НТВ+
Субтитры: нет
Оригинальная аудиодорожка: французский
Режиссер: Ален Корно / Alain Corneau
В ролях: Жерар Депардье, Филипп Нуаре, Катрин Денёв, Софи Марсо, Мишель Дюшоссуа, Роже Дюма, Жан-Луи Ришар, Жан-Лоран Коше, Пьер Торнад, Саид Амади
Описание: Шарль Саганн, будучи выходцем из крестьянской семьи, дослужился до должности командира Иностранного легиона. Из-за своего происхождения он не смог получить офицерского образования, и был отправлен в Африку, где служил под началом полковника Дюбреля.
В небольшом колониальном городке на севере Африки в Шарля Саганна влюбляется Мадлен, дочь богатых и знатных родителей. Местная знать не упускает случая напомнить Шарлю, что по низости рода он не достоин офицерского звания. А родители девушки в страхе перед мезальянсом, используют свое влияние, чтобы удалить Саганна из гарнизона и разлучают влюбленных. Командующий корпусом полковник Дюброй берет Шарля с собой в поход в Сахару, чтобы вернуть союзника Франции эмира, бежавшего вместе со своими племенами
Сэмпл: Яндекс.Диск
Качество видео: HDRip-AVC [Исходник]
Формат видео: MKV
Видео: 1040x442, 25 fps, x264 core 164 (r3107 a8b68eb) 2 067 Kbps avg, 0.180 bit/pixel
Аудио: AAC-LC, 48 kHz, 16-bit, 2 channels, 128 Kbps, Русский [MVO] к/ст "Фильмэкспорт" по заказу ТРК "Останкино" (Ирина Губанова, Елена Соловьёва, Артём Карапетян, Вячеслав Баранов, Александр Клюквин)
Аудио 2: AAC-LC, 48 kHz, 16-bit, 2 channels, 128 Kbps, Русский [MVO] НТВ+ по заказу НТВ (Наталья Казначеева, Анна Молчанова, Владимир Вихров, Александр Дик, Александр Клюквин)
Аудио 3: AAC-LC, 48 kHz, 16-bit, 2 channels, 128 Kbps, Французский

MediaInfo

General
Unique ID                   : 129316150308298599241065101434906771135 (0x614962764539D57C4238A71385807EBF)
Complete name               : D:\Fort.Saganne.1984.HDRip-AVC.mkv
Format                      : Matroska
Format version              : Version 4
File size                   : 2.98 GiB
Duration                    : 2 h 53 min
Overall bit rate            : 2 455 kb/s
Movie name                  : Форт Саган
Encoded date                : UTC 2023-06-09 09:04:53
Writing application         : mkvmerge v64.0.0 ('Willows') 64-bit
Writing library             : libebml v1.4.2 + libmatroska v1.6.4
Video
ID                          : 1
Format                      : AVC
Format/Info                 : Advanced Video Codec
Format profile              : High@L4.1
Format settings             : CABAC / 16 Ref Frames
Format settings, CABAC      : Yes
Format settings, Reference  : 16 frames
Codec ID                    : V_MPEG4/ISO/AVC
Duration                    : 2 h 53 min
Bit rate                    : 2 067 kb/s
Width                       : 1 040 pixels
Height                      : 442 pixels
Display aspect ratio        : 2.35:1
Frame rate mode             : Constant
Frame rate                  : 25.000 FPS
Color space                 : YUV
Chroma subsampling          : 4:2:0
Bit depth                   : 8 bits
Scan type                   : Progressive
Bits/(Pixel*Frame)          : 0.180
Stream size                 : 2.51 GiB (84%)
Title                       : (x264: 1040x442 25fps ~2067Kbps)
Writing library             : x264 core 164 r3107 a8b68eb
Encoding settings           : cabac=1 / ref=16 / deblock=1:0:0 / analyse=0x3:0x133 / me=umh / subme=10 / psy=1 / psy_rd=1.00:0.00 / mixed_ref=1 / me_range=24 / chroma_me=1 / trellis=2 / 8x8dct=1 / cqm=0 / deadzone=21,11 / fast_pskip=1 / chroma_qp_offset=-2 / threads=12 / lookahead_threads=2 / sliced_threads=0 / nr=0 / decimate=1 / interlaced=0 / bluray_compat=0 / constrained_intra=0 / bframes=8 / b_pyramid=2 / b_adapt=2 / b_bias=0 / direct=3 / weightb=1 / open_gop=0 / weightp=2 / keyint=250 / keyint_min=25 / scenecut=40 / intra_refresh=0 / rc_lookahead=60 / rc=crf / mbtree=1 / crf=19.0 / qcomp=0.60 / qpmin=0 / qpmax=69 / qpstep=4 / vbv_maxrate=62500 / vbv_bufsize=78125 / crf_max=0.0 / nal_hrd=none / filler=0 / ip_ratio=1.40 / aq=1:1.00
Language                    : French
Default                     : Yes
Forced                      : No
Audio #1
ID                          : 2
Format                      : AAC LC
Format/Info                 : Advanced Audio Codec Low Complexity
Codec ID                    : A_AAC-2
Duration                    : 2 h 53 min
Bit rate                    : 128 kb/s
Channel(s)                  : 2 channels
Channel layout              : L R
Sampling rate               : 48.0 kHz
Frame rate                  : 46.875 FPS (1024 SPF)
Compression mode            : Lossy
Stream size                 : 159 MiB (5%)
Title                       : Russian AAC-LC 2.0 48 KHz 128Kbps [MVO] Фильмэкспорт / Останкино
Language                    : Russian
Default                     : Yes
Forced                      : No
Audio #2
ID                          : 3
Format                      : AAC LC
Format/Info                 : Advanced Audio Codec Low Complexity
Codec ID                    : A_AAC-2
Duration                    : 2 h 53 min
Bit rate                    : 128 kb/s
Channel(s)                  : 2 channels
Channel layout              : L R
Sampling rate               : 48.0 kHz
Frame rate                  : 46.875 FPS (1024 SPF)
Compression mode            : Lossy
Stream size                 : 159 MiB (5%)
Title                       : Russian AAC-LC 2.0 48 KHz 128Kbps [MVO] НТВ+
Language                    : Russian
Default                     : No
Forced                      : No
Audio #3
ID                          : 4
Format                      : AAC LC
Format/Info                 : Advanced Audio Codec Low Complexity
Codec ID                    : A_AAC-2
Duration                    : 2 h 53 min
Bit rate                    : 128 kb/s
Channel(s)                  : 2 channels
Channel layout              : L R
Sampling rate               : 48.0 kHz
Frame rate                  : 46.875 FPS (1024 SPF)
Compression mode            : Lossy
Stream size                 : 159 MiB (5%)
Title                       : French AAC-LC 2.0 48 KHz 128Kbps
Language                    : French
Default                     : No
Forced                      : No

x264 log

avs [info]: 1040x442p 1:1 @ 25/1 fps (cfr)
x264 [info]: using SAR=1/1
x264 [info]: using cpu capabilities: MMX2 SSE2Fast SSSE3 SSE4.2 AVX FMA3 BMI2 AVX2
x264 [info]: profile High, level 4.1, 4:2:0, 8-bit
x264 [info]: frame I:1594  Avg QP:16.42  size: 97147
x264 [info]: frame P:63703 Avg QP:19.60  size: 26329
x264 [info]: frame B:195599 Avg QP:23.97  size:  4419
x264 [info]: consecutive B-frames:  1.9%  2.2%  7.4% 51.9% 17.7% 15.3%  2.4%  1.0%  0.1%
x264 [info]: mb I  I16..4:  2.9% 66.9% 30.2%
x264 [info]: mb P  I16..4:  0.5%  4.6%  1.6%  P16..4: 45.4% 23.3% 19.0%  1.1%  0.5%    skip: 4.0%
x264 [info]: mb B  I16..4:  0.0%  0.4%  0.2%  B16..8: 38.1%  7.2%  2.4%  direct: 3.8%  skip:47.9%  L0:41.3% L1:48.1% BI:10.7%
x264 [info]: 8x8 transform intra:66.9% inter:56.3%
x264 [info]: direct mvs  spatial:100.0% temporal:0.0%
x264 [info]: coded y,uvDC,uvAC intra: 90.4% 75.8% 40.1% inter: 21.9% 17.6% 1.6%
x264 [info]: i16 v,h,dc,p: 33% 20% 11% 36%
x264 [info]: i8 v,h,dc,ddl,ddr,vr,hd,vl,hu:  9%  7%  5% 10% 15% 14% 14% 12% 13%
x264 [info]: i4 v,h,dc,ddl,ddr,vr,hd,vl,hu: 11%  7%  3%  9% 15% 15% 13% 13% 14%
x264 [info]: i8c dc,h,v,p: 38% 25% 21% 16%
x264 [info]: Weighted P-Frames: Y:14.1% UV:3.9%
x264 [info]: ref P L0: 48.1% 13.5% 14.9%  5.0%  4.1%  2.8%  2.7%  1.4%  1.3%  1.1%  1.1%  0.9%  0.9%  0.8%  0.9%  0.6%
x264 [info]: ref B L0: 85.4%  6.7%  2.6%  1.3%  0.8%  0.7%  0.6%  0.4%  0.3%  0.3%  0.2%  0.2%  0.2%  0.2%  0.1%
x264 [info]: ref B L1: 97.4%  2.6%
x264 [info]: kb/s:2067.06
encoded 260896 frames, 48.85 fps, 2067.06 kb/s

Скриншот c названием фильма

Скриншоты



[Profile]  [PM] 
Display posts:    
Reply to topic

Current time is: 21-Jul 20:44

All times are UTC + 2



You cannot post new topics in this forum
You cannot reply to topics in this forum
You cannot edit your posts in this forum
You cannot delete your posts in this forum
You cannot vote in polls in this forum
You cannot attach files in this forum
You cannot download files in this forum