Подкоп / Dig (К. Эшер Левин / K. Asher Levin) [2022, США, триллер, BDRip 1080p] Dub (CPI Films) + Original (Eng) + Sub (eng)

Reply to topic
 
Author
Message

Faust ®

Gender: Unknown

Longevity: 12 years

Posts: 23187

Reputation: 0 [+] [-]

Faust · Post 12-Jun-2023 12:55

[Quote] 

Подкоп / Dig
Страна: США
Жанр: Триллер
Год выпуска: 2022
Продолжительность: 01:29:33-Перевод: Профессиональный (дублированный) | CPI Films
Cубтитры: Английские (Full, SDH)
Оригинальная аудиодорожка: Английский-Режиссёр: К. Эшер Левин / K. Asher Levin
В ролях: Томас Джейн, Лиана Либерато, Харлоу Джейн, Эмиль Хирш, Макана Дэвид, , Майкл Винсент Берри, , Рамона ДюБарри, Эшли Домангу,
Описание: Скотт Бреннан — отец дочери-подростка Джейн, с которой у него непростые отношения после трагического события, унесшего жизнь его жены и лишившего дочь слуха. Джейн винит отца в смерти матери, а Скотт отказывается изучать язык жестов. Чтобы заработать денег на операцию для дочери, Скотт соглашается на сомнительную работу — расчистить некий заброшенный дом. Вот только предложение о работе оборачивается для героя и его дочери трагедией. Они становятся заложниками, а парочка садистов заставляет их копать землю, чтобы достать нечто, спрятанное под домом. Скотта и Джейн не планируют оставлять в живых после дела, поэтому у них есть только один шанс выжить — сбежать.- -Тип релиза: BDRip 1080p
Контейнер: MKV-Видео: AVC/H.264, 1920x804, 19800 Kbps, 23.976 fps
Аудио 1: Русский | E-AC-3, 6 ch, 384 Kbps, 48.0 kHz
Аудио 2: Английский | E-AC-3, 6 ch, 1024 Kbps, 48.0 kHz
Формат субтитров: softsub (SRT)-

MediaInfo

General
Unique ID                                : 262491932310895467307041845976063434866 (0xC57A1B75603263D15E620FFE34566072)
Complete name                            : /Volumes/Promise Pegasus/Dig.2022.BDRip.1080p.pk.mkv
Format                                   : Matroska
Format version                           : Version 4
File size                                : 13.3 GiB
Duration                                 : 1 h 29 min
Overall bit rate                         : 21.2 Mb/s
Frame rate                               : 23.976 FPS
Movie name                               : Dig 2022 BDRip 1080p pk
Encoded date                             : 2023-06-08 22:27:46 UTC
Writing application                      : mkvmerge v73.0.0 ('25 or 6 to 4') 64-bit
Writing library                          : libebml v1.4.4 + libmatroska v1.7.1
Video
ID                                       : 1
Format                                   : AVC
Format/Info                              : Advanced Video Codec
Format profile                           : High@L4.1
Format settings                          : CABAC / 5 Ref Frames
Format settings, CABAC                   : Yes
Format settings, Reference frames        : 5 frames
Codec ID                                 : V_MPEG4/ISO/AVC
Duration                                 : 1 h 29 min
Bit rate                                 : 19.8 Mb/s
Width                                    : 1 920 pixels
Height                                   : 804 pixels
Display aspect ratio                     : 2.40:1
Frame rate mode                          : Constant
Frame rate                               : 23.976 (24000/1001) FPS
Color space                              : YUV
Chroma subsampling                       : 4:2:0
Bit depth                                : 8 bits
Scan type                                : Progressive
Bits/(Pixel*Frame)                       : 0.535
Stream size                              : 12.4 GiB (93%)
Writing library                          : x264 core 164 r3106+55M encoded by pk5360114 in Russia
Encoding settings                        : cabac=1 / ref=5 / deblock=1:-3:-3 / analyse=0x3:0x133 / me=umh / subme=11 / psy=1 / fade_compensate=0.00 / psy_rd=1.05:0.00 / mixed_ref=1 / me_range=32 / chroma_me=1 / trellis=2 / 8x8dct=1 / cqm=0 / deadzone=21,11 / fast_pskip=0 / chroma_qp_offset=-2 / threads=25 / lookahead_threads=6 / sliced_threads=0 / nr=0 / decimate=0 / interlaced=0 / bluray_compat=0 / constrained_intra=0 / fgo=0 / bframes=15 / b_pyramid=2 / b_adapt=2 / b_bias=0 / direct=3 / weightb=1 / open_gop=0 / weightp=2 / keyint=240 / keyint_min=23 / scenecut=40 / intra_refresh=0 / rc_lookahead=60 / rc=crf / mbtree=0 / crf=19.5000 / qcomp=0.63 / qpmin=0:0:0 / qpmax=69:69:69 / qpstep=4 / vbv_maxrate=62500 / vbv_bufsize=78125 / crf_max=0.0 / nal_hrd=none / filler=0 / ip_ratio=1.30 / pb_ratio=1.20 / aq=3:0.75 / aq-sensitivity=10.00 / aq-factor=1.00:1.00:1.00 / aq2=0 / aq3=0
Language                                 : English
Default                                  : Yes
Forced                                   : No
Color range                              : Limited
Color primaries                          : BT.709
Transfer characteristics                 : BT.709
Matrix coefficients                      : BT.709
Audio #1
ID                                       : 2
Format                                   : E-AC-3
Format/Info                              : Enhanced AC-3
Commercial name                          : Dolby Digital Plus
Codec ID                                 : A_EAC3
Duration                                 : 1 h 29 min
Bit rate mode                            : Constant
Bit rate                                 : 384 kb/s
Channel(s)                               : 6 channels
Channel layout                           : L R C LFE Ls Rs
Sampling rate                            : 48.0 kHz
Frame rate                               : 31.250 FPS (1536 SPF)
Compression mode                         : Lossy
Stream size                              : 246 MiB (2%)
Title                                    : Russian Dub CPI Films
Language                                 : Russian
Service kind                             : Complete Main
Default                                  : Yes
Forced                                   : No
Audio #2
ID                                       : 3
Format                                   : E-AC-3
Format/Info                              : Enhanced AC-3
Commercial name                          : Dolby Digital Plus
Codec ID                                 : A_EAC3
Duration                                 : 1 h 29 min
Bit rate mode                            : Constant
Bit rate                                 : 1 024 kb/s
Channel(s)                               : 6 channels
Channel layout                           : L R C LFE Ls Rs
Sampling rate                            : 48.0 kHz
Frame rate                               : 31.250 FPS (1536 SPF)
Compression mode                         : Lossy
Stream size                              : 656 MiB (5%)
Title                                    : English Original
Language                                 : English
Service kind                             : Complete Main
Default                                  : No
Forced                                   : No
Text #1
ID                                       : 4
Format                                   : UTF-8
Codec ID                                 : S_TEXT/UTF8
Codec ID/Info                            : UTF-8 Plain Text
Duration                                 : 1 h 23 min
Bit rate                                 : 63 b/s
Frame rate                               : 0.239 FPS
Count of elements                        : 1197
Stream size                              : 38.9 KiB (0%)
Title                                    : English full
Language                                 : English
Default                                  : No
Forced                                   : No
Text #2
ID                                       : 5
Format                                   : UTF-8
Codec ID                                 : S_TEXT/UTF8
Codec ID/Info                            : UTF-8 Plain Text
Duration                                 : 1 h 25 min
Bit rate                                 : 79 b/s
Frame rate                               : 0.288 FPS
Count of elements                        : 1485
Stream size                              : 49.8 KiB (0%)
Title                                    : English SDH
Language                                 : English
Default                                  : No
Forced                                   : No
Menu
00:00:00.000                             : en:Chapter 01
00:07:09.095                             : en:Chapter 02
00:14:00.131                             : en:Chapter 03
00:16:44.879                             : en:Chapter 04
00:20:28.978                             : en:Chapter 05
00:25:25.733                             : en:Chapter 06
00:29:19.424                             : en:Chapter 07
00:36:13.338                             : en:Chapter 08
00:44:30.084                             : en:Chapter 09
00:48:35.913                             : en:Chapter 10
00:54:05.534                             : en:Chapter 11
00:59:53.673                             : en:Chapter 12
01:05:28.424                             : en:Chapter 13
01:12:33.099                             : en:Chapter 14
01:17:43.117                             : en:Chapter 15
01:24:13.257                             : en:Chapter 16

x264 log

x264 [info]: frame I:657   Avg QP:17.68  size:176077
x264 [info]: frame P:21738 Avg QP:19.09  size:132866
x264 [info]: frame B:106438 Avg QP:20.42  size: 96673
x264 [info]: consecutive B-frames:  1.6%  1.6%  2.0%  8.4%  9.6% 37.2%  9.1%  2.3%  3.3%  6.0%  5.0%  2.0%  5.0%  4.3%  1.3%  1.1%
x264 [info]: kb/s:19791.68

Скриншоты сравнения




Скриншоты

[Profile]  [PM] 
Display posts:    
Reply to topic

Current time is: 20-Jul 01:45

All times are UTC + 2



You cannot post new topics in this forum
You cannot reply to topics in this forum
You cannot edit your posts in this forum
You cannot delete your posts in this forum
You cannot vote in polls in this forum
You cannot attach files in this forum
You cannot download files in this forum