Искатели / Seekers (Майкл Эффенбергер / Michael Effenberger) [2016, Германия, ужасы, HDRip-AVC] DVO (Yuka chan & datynet) + Sub Rus, Eng + Original Deu

Reply to topic
 
Author
Message

Satyr ®

Gender: Unknown

Longevity: 15 years

Posts: 22045

Reputation: 56 [+] [-]

Satyr · Post 12-Jun-2023 12:55

[Quote] 

Искатели
Seekers

-
Страна: Германия
Студия: Matador Film
Жанр: ужасы
Год выпуска: 2016
Продолжительность: 01:30:05
Перевод: Любительский (двухголосый закадровый) | Yuka_chan & datynet // перевод Княжна
Субтитры: английские, русские
Оригинальная аудиодорожка: немецкий
Режиссер:
Майкл Эффенбергер / Michael Effenberger
В ролях:
Роберт Черны, Кристин Винтер, Verena Puhm, Joel Sansi, Martin Rath, Oliver Troska, Melanie Fuerst, Heiko Deuerling
Описание:
В сопровождении оператора четверо друзей отправляются в глухие леса Польши, чтобы снять документальный фильм о своем хобби: геокэшинге, современной форме поиска сокровищ.
-
|| IMDb || КиноПоиск || Скачать семпл ||
-
Качество видео: HDRip-AVC
Формат видео: MKV
Видео: MPEG-4 AVC, 2822 kbps, 1024x576 (16:9), 23.976 fps, 0.200 bit/pixel, High@L4.1
Аудио 1: 48 kHz, AC3 Dolby Digital, 2/0 (L,R) ch, ~224 kbps | Двухголосый закадровый (Yuka_chan & datynet)
Аудио 2: 48 kHz, AC3 Dolby Digital, 2/0 (L,R) ch, ~224 kbps | Немецкий
Формат субтитров: softsub (SRT)

MediaInfo

avs [info]: 1024x576p 1:1 @ 2997/125 fps (cfr)x264 [info]: using SAR=1/1x264 [info]: using cpu capabilities: MMX2 SSE2Fast SSSE3 SSE4.2 AVX FMA3 BMI2 AVX2x264 [info]: profile High, level 4.1, 4:2:0, 8-bitx264 [info]: frame I:595   Avg QP:15.17  size: 44294x264 [info]: frame P:35443 Avg QP:17.14  size: 26871x264 [info]: frame B:93550 Avg QP:18.89  size:  9920x264 [info]: consecutive B-frames:  5.2%  6.4% 13.2% 24.9% 23.4% 16.9%  5.3%  2.0%  1.3%  0.5%  1.0%x264 [info]: mb I  I16..4:  9.6% 77.3% 13.1%x264 [info]: mb P  I16..4:  4.4% 40.7%  4.3%  P16..4: 32.6%  9.3%  3.8%  0.0%  0.0%    skip: 4.9%x264 [info]: mb B  I16..4:  1.3%  5.1%  0.5%  B16..8: 34.4%  9.3%  2.3%  direct:11.9%  skip:35.2%  L0:48.9% L1:41.6% BI: 9.6%x264 [info]: 8x8 transform intra:80.0% inter:71.9%x264 [info]: direct mvs  spatial:100.0% temporal:0.0%x264 [info]: coded y,uvDC,uvAC intra: 73.9% 77.3% 60.3% inter: 27.9% 26.8% 6.9%x264 [info]: i16 v,h,dc,p: 32% 16% 13% 40%x264 [info]: i8 v,h,dc,ddl,ddr,vr,hd,vl,hu: 13% 11% 15%  7%  9% 10% 11% 10% 13%x264 [info]: i4 v,h,dc,ddl,ddr,vr,hd,vl,hu: 16% 12%  8%  8% 12% 12% 12%  9% 12%x264 [info]: i8c dc,h,v,p: 58% 20% 15%  7%x264 [info]: Weighted P-Frames: Y:9.8% UV:4.6%x264 [info]: ref P L0: 49.9%  6.5% 12.3%  5.7%  4.7%  3.7%  3.4%  2.3%  2.2%  2.0%  1.9%  1.7%  1.7%  1.7%  0.2%  0.0%x264 [info]: ref B L0: 70.8%  9.2%  5.0%  2.9%  2.4%  2.0%  1.8%  1.3%  1.2%  1.1%  1.1%  0.8%  0.4%x264 [info]: ref B L1: 95.8%  4.2%x264 [info]: kb/s:2822.24encoded 129588 frames, 10.00 fps, 2822.24 kb/sFinal statistics=============================================================GeneralUnique ID                                : 77595613402360356911337429023929871522 (0x3A605F1D46B85D2AD12B4A2B0F9B2CA2)Complete name                            : D:\Iskateli.2016.HDRip.AVC.mkvFormat                                   : MatroskaFormat version                           : Version 4File size                                : 2.06 GiBDuration                                 : 1 h 30 minOverall bit rate                         : 3 265 kb/sFrame rate                               : 23.976 FPSMovie name                               : Iskateli.2016.HDRip.AVC_vitolinformEncoded date                             : 2023-06-09 06:13:55 UTCWriting application                      : mkvmerge v76.0 ('Celebration') 64-bitWriting library                          : libebml v1.4.4 + libmatroska v1.7.1Attachments                              : poster.jpg / log.log
VideoID : 1Format : AVCFormat/Info : Advanced Video CodecFormat profile : High@L4.1Format settings : CABAC / 14 Ref FramesFormat settings, CABAC : YesFormat settings, Reference frames : 14 framesCodec ID : V_MPEG4/ISO/AVCDuration : 1 h 30 minBit rate : 2 822 kb/sWidth : 1 024 pixelsHeight : 576 pixelsDisplay aspect ratio : 16:9Frame rate mode : ConstantFrame rate : 23.976 (23976/1000) FPSColor space : YUVChroma subsampling : 4:2:0Bit depth : 8 bitsScan type : ProgressiveBits/(Pixel*Frame) : 0.200Stream size : 1.78 GiB (86%)Title : Искатели / Seekers (2016)Writing library : x264 core 164 r3107 a8b68ebEncoding settings : cabac=1 / ref=14 / deblock=1:-3:-3 / analyse=0x3:0x113 / me=umh / subme=10 / psy=1 / psy_rd=1.00:0.05 / mixed_ref=0 / me_range=32 / chroma_me=1 / trellis=2 / 8x8dct=1 / cqm=0 / deadzone=21,11 / fast_pskip=0 / chroma_qp_offset=-6 / threads=12 / lookahead_threads=3 / sliced_threads=0 / nr=0 / decimate=1 / interlaced=0 / bluray_compat=0 / constrained_intra=0 / bframes=10 / b_pyramid=2 / b_adapt=2 / b_bias=0 / direct=3 / weightb=1 / open_gop=0 / weightp=2 / keyint=240 / keyint_min=23 / scenecut=40 / intra_refresh=0 / rc_lookahead=40 / rc=crf / mbtree=0 / crf=19.3 / qcomp=0.60 / qpmin=0 / qpmax=69 / qpstep=4 / vbv_maxrate=50000 / vbv_bufsize=62500 / crf_max=0.0 / nal_hrd=none / filler=0 / ip_ratio=1.40 / pb_ratio=1.35 / aq=1:1.00Language : GermanDefault : YesForced : NoColor range : LimitedColor primaries : BT.709Transfer characteristics : BT.709Matrix coefficients : BT.709
Audio #1ID : 2Format : AC-3Format/Info : Audio Coding 3Commercial name : Dolby DigitalCodec ID : A_AC3Duration : 1 h 30 minBit rate mode : ConstantBit rate : 224 kb/sChannel(s) : 2 channelsChannel layout : L RSampling rate : 48.0 kHzFrame rate : 31.250 FPS (1536 SPF)Compression mode : LossyStream size : 145 MiB (7%)Title : DVO | Yuka_chan & datynetLanguage : RussianService kind : Complete MainDefault : YesForced : No
Audio #2ID : 3Format : AC-3Format/Info : Audio Coding 3Commercial name : Dolby DigitalCodec ID : A_AC3Duration : 1 h 30 minBit rate mode : ConstantBit rate : 224 kb/sChannel(s) : 2 channelsChannel layout : L RSampling rate : 48.0 kHzFrame rate : 31.250 FPS (1536 SPF)Compression mode : LossyStream size : 144 MiB (7%)Title : GermanLanguage : GermanService kind : Complete MainDefault : NoForced : No
Text #1ID : 4Format : UTF-8Codec ID : S_TEXT/UTF8Codec ID/Info : UTF-8 Plain TextDuration : 1 h 25 minBit rate : 41 b/sFrame rate : 0.131 FPSCount of elements : 669Stream size : 26.2 KiB (0%)Title : Full | КняжнаLanguage : RussianDefault : NoForced : No
Text #2ID : 5Format : UTF-8Codec ID : S_TEXT/UTF8Codec ID/Info : UTF-8 Plain TextDuration : 1 h 24 minBit rate : 25 b/sFrame rate : 0.130 FPSCount of elements : 660Stream size : 15.9 KiB (0%)Title : FullLanguage : EnglishDefault : NoForced : No

Скриншот c названием фильма

Скриншоты

[Profile]  [PM] 
Display posts:    
Reply to topic

Current time is: 25-Jul 04:53

All times are UTC + 2



You cannot post new topics in this forum
You cannot reply to topics in this forum
You cannot edit your posts in this forum
You cannot delete your posts in this forum
You cannot vote in polls in this forum
You cannot attach files in this forum
You cannot download files in this forum