Бабушкин дом / Grandmother\'s House (Питер Рейдер / Peter Rader) [1988, США, ужасы, триллер, BDRip-AVC] Dub (Варус Видео) + Sub Eng + Original Eng

Reply to topic
 
Author
Message

Satyr ®

Gender: Unknown

Longevity: 15 years

Posts: 22031

Reputation: 56 [+] [-]

Satyr · Post 12-Jun-2023 12:55

[Quote] 

Бабушкин дом / Grandmother's House
Страна: США
Жанр: ужасы, триллер
Год выпуска: 1988
Продолжительность: 01:29:40
Перевод: Профессиональный (дублированный) Варус Видео
Субтитры: английские
Оригинальная аудиодорожка: английский
Режиссер: Питер Рейдер / Peter Rader
В ролях: Эрик Фостер, Ким Валентайн, Лен Лессер, Ида Ли, Бринк Стивенс, Майкл Робинсон, Крейг Йерман, Дэвид Донхэм, Джоан-Кэрол Бенсен, Анджела О’Нилл
Описание: После смерти отца маленькие дети остались сиротами и теперь отправляются жить к бабушке с дедушкой. Но в новом доме явно что-то не так.
Доп. информация: Сведение дубляжа - Diablo, за дубляж спасибо - edich2 и manhunt clon, рип от HANDJOB.
Кинопоиск - IMDb
Sample
Качество видео: BDRip-AVC - Исходник
Формат видео: MKV
Видео: MPEG4 AVC Video, H264, 1.85:1, 854x460, 23.976 fps, 1954 Kbps
Аудио: Russian (AC3, 2 ch, 192 kbps, 48.0 KHz) - Dub
Аудио 2: English (AC3, 2 ch, 192 kbps, 48.0 KHz) - оригинал
Формат субтитров: softsub (SRT)

MediaInfo

General
Unique ID : 178520623170255980100392785115342041146 (0x864DD24650B89124969FD7480795F03A)
Complete name : W:\Grandmother's House 1988 BDRip.mkv
Format : Matroska
Format version : Version 4 / Version 2
File size : 1.49 GiB
Duration : 1 h 29 min
Overall bit rate : 2 385 kb/s
Movie name : Grandmother's House [1988] 480p BluRay - HJ
Encoded date : UTC 2023-06-11 16:47:29
Writing application : mkvmerge v6.1.0 ('Old Devil') built on Mar 2 2013 14:32:37
Writing library : libebml v1.3.0 + libmatroska v1.4.0
Video
ID : 1
Format : AVC
Format/Info : Advanced Video Codec
Format profile : High@L4
Format settings : CABAC / 16 Ref Frames
Format settings, CABAC : Yes
Format settings, ReFrames : 16 frames
Codec ID : V_MPEG4/ISO/AVC
Duration : 1 h 29 min
Bit rate : 1 954 kb/s
Width : 854 pixels
Height : 460 pixels
Display aspect ratio : 1.85:1
Frame rate mode : Constant
Frame rate : 23.976 (24000/1001) FPS
Color space : YUV
Chroma subsampling : 4:2:0
Bit depth : 8 bits
Scan type : Progressive
Bits/(Pixel*Frame) : 0.207
Stream size : 1.22 GiB (82%)
Writing library : x264 core 155 r2901 7d0ff22
Encoding settings : cabac=1 / ref=16 / deblock=1:-3:-3 / analyse=0x3:0x133 / me=umh / subme=11 / psy=1 / psy_rd=1.00:0.00 / mixed_ref=1 / me_range=32 / chroma_me=1 / trellis=2 / 8x8dct=1 / cqm=0 / deadzone=21,11 / fast_pskip=0 / chroma_qp_offset=-2 / threads=6 / lookahead_threads=1 / sliced_threads=0 / nr=0 / decimate=1 / interlaced=0 / bluray_compat=0 / constrained_intra=0 / bframes=8 / b_pyramid=2 / b_adapt=2 / b_bias=0 / direct=3 / weightb=1 / open_gop=0 / weightp=2 / keyint=240 / keyint_min=24 / scenecut=40 / intra_refresh=0 / rc=crf / mbtree=0 / crf=20.0 / qcomp=0.70 / qpmin=0 / qpmax=69 / qpstep=4 / ip_ratio=1.40 / pb_ratio=1.30 / aq=1:0.70
Language : English
Default : Yes
Forced : No
Color range : Limited
Color primaries : BT.709
Transfer characteristics : BT.709
Matrix coefficients : BT.709
Audio #1
ID : 2
Format : AC-3
Format/Info : Audio Coding 3
Codec ID : A_AC3
Duration : 1 h 29 min
Bit rate mode : Constant
Bit rate : 192 kb/s
Channel(s) : 2 channels
Channel positions : Front: L R
Sampling rate : 48.0 kHz
Frame rate : 31.250 FPS (1536 SPF)
Bit depth : 16 bits
Compression mode : Lossy
Stream size : 123 MiB (8%)
Language : Russian
Service kind : Complete Main
Default : Yes
Forced : No
Audio #2
ID : 3
Format : AC-3
Format/Info : Audio Coding 3
Codec ID : A_AC3
Duration : 1 h 29 min
Bit rate mode : Constant
Bit rate : 192 kb/s
Channel(s) : 2 channels
Channel positions : Front: L R
Sampling rate : 48.0 kHz
Frame rate : 31.250 FPS (1536 SPF)
Bit depth : 16 bits
Compression mode : Lossy
Stream size : 123 MiB (8%)
Language : English
Service kind : Complete Main
Default : No
Forced : No
Text
ID : 4
Format : UTF-8
Codec ID : S_TEXT/UTF8
Codec ID/Info : UTF-8 Plain Text
Language : English
Default : No
Forced : No
Menu
00:00:00.000 : :Chapter 1
00:19:04.727 : :Chapter 2
00:40:53.701 : :Chapter 3
01:01:03.535 : :Chapter 4
01:21:34.932 : :Chapter 5

Скриншоты


[Profile]  [PM] 
Display posts:    
Reply to topic

Current time is: 20-Jul 01:42

All times are UTC + 2



You cannot post new topics in this forum
You cannot reply to topics in this forum
You cannot edit your posts in this forum
You cannot delete your posts in this forum
You cannot vote in polls in this forum
You cannot attach files in this forum
You cannot download files in this forum