Человек из Торонто / The Man from Toronto (Патрик Хьюз / Patrick Hughes) [2022, США, Боевик, триллер, комедия, BDRip 1080p] 2х MVO (Jaskier, TVShows) + Dub (Ukr) + Original (Eng) + Sub (rus, ukr, eng)

Reply to topic
 
Author
Message

Faust ®

Gender: Unknown

Longevity: 12 years

Posts: 23187

Reputation: 0 [+] [-]

Faust · Post 12-Jun-2023 17:05

[Quote] 

Человек из Торонто / The Man from Toronto
«Hitman Meets Dead Man»
Страна: США
Жанр: Боевик, триллер, комедия
Год выпуска: 2022
Продолжительность: 01:52:11-Перевод 1: Профессиональный (многоголосый закадровый) | Jaskier 18+
Перевод 2: Профессиональный (многоголосый закадровый) | TVShows
Cубтитры: Русские (Full), Украинские (Forced, Full), Английские (Forced, Full)
Оригинальная аудиодорожка: Английский-Режиссёр: Патрик Хьюз / Patrick Hughes
В ролях: Кевин Харт, Вуди Харрельсон, Кейли Куоко, Пирсон Фод, Жанкарлос Канела, Алехандро Де Хойос, Лила Лорен, Роб Арчер, Мартин Роуч, Патрик Гэрроу
Описание: Из-за ошибки Airbnb обычный житель Нью-Йорка попадает в одну квартиру с киллером по прозвищу Мужчина из Торонто.- -Тип релиза: BDRip 1080p
Контейнер: MKV-Видео: AVC/H.264, 1920x804, 14500 Kbps, 23.976 fps
Аудио 1: Русский | AC-3, 6 ch, 448 Kbps, 48.0 kHz MVO Jaskier 18+
Аудио 2: Русский | AC-3, 2.0 ch, 192 Kbps, 48.0 kHz MVO TVShows
Аудио 3: Украинский | E-AC-3, 6 ch, 640 Kbps, 48.0 kHz Dub Netflix
Аудио 4: Английский | E-AC-3, 6 ch, 1024 Kbps, 48.0 kHz
Формат субтитров: softsub (SRT)-

MediaInfo

General
Unique ID                                : 167419963810875346719454955665923179687 (0x7DF3E983433D98494D3A41AEA90304A7)
Complete name                            : /Volumes/Promise Pegasus/The.Man.from.Toronto.2022.BDRip.1080p.pk.mkv
Format                                   : Matroska
Format version                           : Version 4
File size                                : 12.9 GiB
Duration                                 : 1 h 49 min
Overall bit rate                         : 16.8 Mb/s
Frame rate                               : 23.976 FPS
Movie name                               : The Man from Toronto 2022 BDRip 1080p pk
Encoded date                             : 2023-06-09 23:10:02 UTC
Writing application                      : mkvmerge v73.0.0 ('25 or 6 to 4') 64-bit
Writing library                          : libebml v1.4.4 + libmatroska v1.7.1
Video
ID                                       : 1
Format                                   : AVC
Format/Info                              : Advanced Video Codec
Format profile                           : High@L4.1
Format settings                          : CABAC / 5 Ref Frames
Format settings, CABAC                   : Yes
Format settings, Reference frames        : 5 frames
Codec ID                                 : V_MPEG4/ISO/AVC
Duration                                 : 1 h 49 min
Bit rate                                 : 14.5 Mb/s
Width                                    : 1 920 pixels
Height                                   : 804 pixels
Display aspect ratio                     : 2.40:1
Frame rate mode                          : Constant
Frame rate                               : 23.976 (24000/1001) FPS
Color space                              : YUV
Chroma subsampling                       : 4:2:0
Bit depth                                : 8 bits
Scan type                                : Progressive
Bits/(Pixel*Frame)                       : 0.391
Stream size                              : 11.1 GiB (86%)
Writing library                          : x264 core 164 r3106+55M encoded by pk5360114 in Russia
Encoding settings                        : cabac=1 / ref=5 / deblock=1:-3:-3 / analyse=0x3:0x133 / me=umh / subme=11 / psy=1 / fade_compensate=0.00 / psy_rd=1.00:0.00 / mixed_ref=1 / me_range=32 / chroma_me=1 / trellis=2 / 8x8dct=1 / cqm=0 / deadzone=21,11 / fast_pskip=0 / chroma_qp_offset=-2 / threads=25 / lookahead_threads=4 / sliced_threads=0 / nr=0 / decimate=0 / interlaced=0 / bluray_compat=0 / constrained_intra=0 / fgo=0 / bframes=8 / b_pyramid=2 / b_adapt=2 / b_bias=0 / direct=3 / weightb=1 / open_gop=0 / weightp=2 / keyint=240 / keyint_min=23 / scenecut=40 / intra_refresh=0 / rc_lookahead=60 / rc=crf / mbtree=0 / crf=15.8000 / qcomp=0.65 / qpmin=0:0:0 / qpmax=69:69:69 / qpstep=4 / vbv_maxrate=62500 / vbv_bufsize=78125 / crf_max=0.0 / nal_hrd=none / filler=0 / ip_ratio=1.30 / pb_ratio=1.20 / aq=3:0.80 / aq-sensitivity=10.00 / aq-factor=1.00:1.00:1.00 / aq2=0 / aq3=0
Language                                 : English
Default                                  : Yes
Forced                                   : No
Color range                              : Limited
Color primaries                          : BT.709
Transfer characteristics                 : BT.709
Matrix coefficients                      : BT.709
Audio #1
ID                                       : 2
Format                                   : AC-3
Format/Info                              : Audio Coding 3
Commercial name                          : Dolby Digital
Codec ID                                 : A_AC3
Duration                                 : 1 h 49 min
Bit rate mode                            : Constant
Bit rate                                 : 448 kb/s
Channel(s)                               : 6 channels
Channel layout                           : L R C LFE Ls Rs
Sampling rate                            : 48.0 kHz
Frame rate                               : 31.250 FPS (1536 SPF)
Compression mode                         : Lossy
Stream size                              : 352 MiB (3%)
Title                                    : Russian MVO Jaskier 18+
Language                                 : Russian
Service kind                             : Complete Main
Default                                  : Yes
Forced                                   : No
Audio #2
ID                                       : 3
Format                                   : AC-3
Format/Info                              : Audio Coding 3
Commercial name                          : Dolby Digital
Codec ID                                 : A_AC3
Duration                                 : 1 h 49 min
Bit rate mode                            : Constant
Bit rate                                 : 192 kb/s
Channel(s)                               : 2 channels
Channel layout                           : L R
Sampling rate                            : 48.0 kHz
Frame rate                               : 31.250 FPS (1536 SPF)
Compression mode                         : Lossy
Stream size                              : 151 MiB (1%)
Title                                    : Russian MVO TVShows
Language                                 : Russian
Service kind                             : Complete Main
Default                                  : No
Forced                                   : No
Audio #3
ID                                       : 4
Format                                   : E-AC-3
Format/Info                              : Enhanced AC-3
Commercial name                          : Dolby Digital Plus
Codec ID                                 : A_EAC3
Duration                                 : 1 h 49 min
Bit rate mode                            : Constant
Bit rate                                 : 640 kb/s
Channel(s)                               : 6 channels
Channel layout                           : L R C LFE Ls Rs
Sampling rate                            : 48.0 kHz
Frame rate                               : 31.250 FPS (1536 SPF)
Compression mode                         : Lossy
Stream size                              : 503 MiB (4%)
Title                                    : Ukrainian Dub Netflix
Language                                 : Ukrainian
Service kind                             : Complete Main
Default                                  : No
Forced                                   : No
Audio #4
ID                                       : 5
Format                                   : E-AC-3
Format/Info                              : Enhanced AC-3
Commercial name                          : Dolby Digital Plus
Codec ID                                 : A_EAC3
Duration                                 : 1 h 49 min
Bit rate mode                            : Constant
Bit rate                                 : 1 024 kb/s
Channel(s)                               : 6 channels
Channel layout                           : L R C LFE Ls Rs
Sampling rate                            : 48.0 kHz
Frame rate                               : 31.250 FPS (1536 SPF)
Compression mode                         : Lossy
Stream size                              : 806 MiB (6%)
Title                                    : English Original
Language                                 : English
Service kind                             : Complete Main
Default                                  : No
Forced                                   : No
Text #1
ID                                       : 6
Format                                   : UTF-8
Codec ID                                 : S_TEXT/UTF8
Codec ID/Info                            : UTF-8 Plain Text
Duration                                 : 1 h 48 min
Bit rate                                 : 109 b/s
Frame rate                               : 0.284 FPS
Count of elements                        : 1860
Stream size                              : 87.4 KiB (0%)
Title                                    : Russian full
Language                                 : Russian
Default                                  : No
Forced                                   : No
Text #2
ID                                       : 7
Format                                   : UTF-8
Codec ID                                 : S_TEXT/UTF8
Codec ID/Info                            : UTF-8 Plain Text
Duration                                 : 1 h 46 min
Bit rate                                 : 1 b/s
Frame rate                               : 0.007 FPS
Count of elements                        : 44
Stream size                              : 1.49 KiB (0%)
Title                                    : Ukrainian forced
Language                                 : Ukrainian
Default                                  : No
Forced                                   : No
Text #3
ID                                       : 8
Format                                   : UTF-8
Codec ID                                 : S_TEXT/UTF8
Codec ID/Info                            : UTF-8 Plain Text
Duration                                 : 1 h 48 min
Bit rate                                 : 109 b/s
Frame rate                               : 0.289 FPS
Count of elements                        : 1878
Stream size                              : 87.3 KiB (0%)
Title                                    : Ukrainian full
Language                                 : Ukrainian
Default                                  : No
Forced                                   : No
Text #4
ID                                       : 9
Format                                   : UTF-8
Codec ID                                 : S_TEXT/UTF8
Codec ID/Info                            : UTF-8 Plain Text
Duration                                 : 16 s 850 ms
Bit rate                                 : 33 b/s
Frame rate                               : 0.237 FPS
Count of elements                        : 4
Stream size                              : 70.0 Bytes (0%)
Title                                    : English forced
Language                                 : English
Default                                  : No
Forced                                   : No
Text #5
ID                                       : 10
Format                                   : UTF-8
Codec ID                                 : S_TEXT/UTF8
Codec ID/Info                            : UTF-8 Plain Text
Duration                                 : 1 h 44 min
Bit rate                                 : 81 b/s
Frame rate                               : 0.310 FPS
Count of elements                        : 1937
Stream size                              : 62.5 KiB (0%)
Title                                    : English full
Language                                 : English
Default                                  : No
Forced                                   : No
Menu
00:00:00.000                             : Chapter 01
00:06:37.397                             : Chapter 02
00:12:36.089                             : Chapter 03
00:17:05.816                             : Chapter 04
00:26:23.165                             : Chapter 05
00:33:12.157                             : Chapter 06
00:42:03.354                             : Chapter 07
00:48:51.971                             : Chapter 08
00:56:00.857                             : Chapter 09
01:01:40.447                             : Chapter 10
01:06:40.288                             : Chapter 11
01:11:29.911                             : Chapter 12
01:18:06.432                             : Chapter 13
01:24:14.967                             : Chapter 14
01:27:56.229                             : Chapter 15
01:41:39.677                             : Chapter 16
01:44:58.417                             : Chapter 17

x264 log

x264 [info]: frame I:1615  Avg QP:12.18  size:230678
x264 [info]: frame P:35804 Avg QP:13.63  size:127973
x264 [info]: frame B:120813 Avg QP:14.99  size: 57878
x264 [info]: consecutive B-frames:  3.5%  3.1%  5.6% 25.8% 16.5% 27.8%  8.1%  8.7%  0.9%
x264 [info]: kb/s:14481.98

Скриншоты сравнения




Скриншоты

[Profile]  [PM] 
Display posts:    
Reply to topic

Current time is: 20-Jul 01:37

All times are UTC + 2



You cannot post new topics in this forum
You cannot reply to topics in this forum
You cannot edit your posts in this forum
You cannot delete your posts in this forum
You cannot vote in polls in this forum
You cannot attach files in this forum
You cannot download files in this forum