Лютер-пожиратель / Лютер-живоглот / Урод-Лютер / Luther the Geek (Карлтон Дж. Олбрайт / Carlton J. Albright) [1989, США, ужасы, HDRip-AVC] DVO (Варус Видео)

Reply to topic
 
Author
Message

Satyr ®

Gender: Unknown

Longevity: 15 years

Posts: 22031

Reputation: 56 [+] [-]

Satyr · Post 12-Jun-2023 17:05

[Quote] 

Лютер-пожиратель / Лютер-живоглот / Урод-Лютер / Luther the Geek
Страна: США
Жанр: ужасы
Год выпуска: 1989
Продолжительность: 01:20:23
Перевод: Профессиональный (двухголосый закадровый) Варус Видео
Субтитры: нет
Оригинальная аудиодорожка: нет
Режиссер: Карлтон Дж. Олбрайт / Carlton J. Albright
В ролях: Эдвард Терри, Джоан Рот, Стэйси Хайдук, Томас Миллс, Джерри Кларк, Том Бриттингем, Карлтон Уильямс, «Chicken» Klabunde, Джил Роджерс, Karen Maurise
Описание: В детстве Лютер увидел на карнавале пьянчугу-«фрика», откусывавшего головы живым цыплятам. Паренёк был настолько шокирован этим зрелищем, что помешался и вырос настоящим кровожадным безумцем. Проведя почти всю юность за решёткой, 30-летний Лютер решает взяться за старое в небольшом городке…
Сэмпл: http://sendfile.su/1669791
Качество видео: HDRip-AVC
Формат видео: MKV
Видео: x264 1024x576 23.976 fps 2 781 kb/s
Аудио: AC3 48 kHz 2.0 192 kbps

MediaInfo

GeneralUnique ID                      : 230082232027645147676450395759546687850 (0xAD1839DD52535B219750E2948F0F616A)Complete name                  : Luther the Geek (1990).mkvFormat                         : MatroskaFormat version                 : Version 4 / Version 2File size                      : 1.67 GiBDuration                       : 1 h 20 minOverall bit rate               : 2 975 kb/sEncoded date                   : UTC 2023-06-09 14:46:40Writing application            : mkvmerge v77.0 ('Elemental NON-OFFICIAL') 32-bitWriting library                : libebml v1.4.4 + libmatroska v1.7.1
VideoID : 1Format : AVCFormat/Info : Advanced Video CodecFormat profile : High@L4.1Format settings, CABAC : YesFormat settings, RefFrames : 9 framesCodec ID : V_MPEG4/ISO/AVCDuration : 1 h 20 minBit rate : 2 781 kb/sWidth : 1 024 pixelsHeight : 576 pixelsDisplay aspect ratio : 16:9Frame rate mode : ConstantFrame rate : 23.976 (24000/1001) FPSColor space : YUVChroma subsampling : 4:2:0Bit depth : 8 bitsScan type : ProgressiveBits/(Pixel*Frame) : 0.197Stream size : 1.56 GiB (93%)Writing library : x264 core 157 r2935 545de2fEncoding settings : cabac=1 / ref=9 / deblock=1:-3:-3 / analyse=0x3:0x133 / me=umh / subme=10 / psy=1 / psy_rd=1.00:0.00 / mixed_ref=1 / me_range=24 / chroma_me=1 / trellis=2 / 8x8dct=1 / cqm=0 / deadzone=21,11 / fast_pskip=1 / chroma_qp_offset=-2 / threads=12 / lookahead_threads=1 / sliced_threads=0 / nr=0 / decimate=1 / interlaced=0 / bluray_compat=0 / constrained_intra=0 / bframes=5 / b_pyramid=2 / b_adapt=2 / b_bias=0 / direct=3 / weightb=1 / open_gop=0 / weightp=2 / keyint=240 / keyint_min=24 / scenecut=40 / intra_refresh=0 / rc_lookahead=60 / rc=crf / mbtree=1 / crf=21.0 / qcomp=0.60 / qpmin=0 / qpmax=69 / qpstep=4 / vbv_maxrate=17500 / vbv_bufsize=17500 / crf_max=0.0 / nal_hrd=none / filler=0 / ip_ratio=1.40 / aq=1:1.00Default : YesForced : NoColor range : LimitedColor primaries : BT.709Transfer characteristics : BT.709Matrix coefficients : BT.709
AudioID : 2Format : AC-3Format/Info : Audio Coding 3Format settings, Endianness : BigCodec ID : A_AC3Duration : 1 h 20 minBit rate mode : ConstantBit rate : 192 kb/sChannel(s) : 2 channelsChannel positions : Front: L RSampling rate : 48.0 kHzFrame rate : 31.250 FPS (1536 SPF)Bit depth : 16 bitsCompression mode : LossyStream size : 110 MiB (6%)Title : Varus VideoLanguage : RussianService kind : Complete MainDefault : YesForced : No

Скриншоты

дорожка Варус Видео доступна благодаря kralonin
[Profile]  [PM] 
Display posts:    
Reply to topic

Current time is: 20-Jul 01:35

All times are UTC + 2



You cannot post new topics in this forum
You cannot reply to topics in this forum
You cannot edit your posts in this forum
You cannot delete your posts in this forum
You cannot vote in polls in this forum
You cannot attach files in this forum
You cannot download files in this forum