Клевый парень / Bowfinger (Фрэнк Оз / Frank Oz) [1999, США, комедия, BDRemux 1080p] Dub (Ист-Вест) + 4х MVO + DVO (Премьер Мультимедиа) + 3x AVO + Sub (Rus, Eng) + Original Eng

Reply to topic
 
Author
Message

Faust ®

Gender: Unknown

Longevity: 12 years

Posts: 23187

Reputation: 0 [+] [-]

Faust · Post 12-Jun-2023 17:05

[Quote] 

Клевый парень / Bowfinger
Страна: США
Студия: Imagine Entertainment, Universal Pictures
Жанр: комедия
Год выпуска: 1999
Продолжительность: 01:36:49
Перевод 1: Профессиональный (дублированный) Ист-Вест
Перевод 2: Профессиональный (многоголосый закадровый) R5
Перевод 3: Профессиональный (многоголосый закадровый) Позитив Мультимедиа
Перевод 4: Профессиональный (многоголосый закадровый) Первый канал/ТВ3
Перевод 5: Профессиональный (многоголосый закадровый) CTC
Перевод 6: Профессиональный (двухголосый закадровый) Премьер Мультимедиа
Перевод 7: Авторский (одноголосый закадровый) Юрий Живов
Перевод 8: Авторский (одноголосый закадровый) Андрей Дольский
Перевод 9: Авторский (одноголосый закадровый) Александр Кашкин
Субтитры: русские, английские
Оригинальная аудиодорожка: английский
Режиссер: Фрэнк Оз / Frank Oz
В ролях: Стив Мартин, Эдди Мёрфи, Хезер Грэм, Кристин Барански, Джэми Кеннеди, Адам Алекси-Малл, Кол Саддаф, Бэрри Ньюман, Теренс Стэмп, Роберт Дауни мл., Альфред Де Контрерас, Рамиро Фабиан, Джонни Санчез, Клод Брукс, Джон Проски
Описание: Бобби Боуфингер - клевый парень! Не беда, что он абсолютно бестолковый режиссер и самый большой проходимец в Голливуде. Бобби задумал снять настоящий боевик. И не просто боевик, а блокбастер, который принесет огромную кассу и немеркнущую славу. Что же для этого потребуется? Во-первых, - хороший сценарий! Сценарий у Бобби есть. И какой!
В нем зловещие инопланетные твари опускаются на Землю в дождевых каплях и набрасываются на людей. Во-вторых, - заполучить в свой фильм суперзвезду! Причем самого Кита Рэмзи - настоящего героя «боевиков». Тогда, чтобы увидеть кумира в фильме Бобби, в кинотеатры ринутся легионы одержимых поклонников, размахивая толстыми кошельками. А потом можно преспокойно почивать на лаврах и раздавать автографы.
Есть лишь одна маленькая проблема: Кит Рэмзи сниматься у Бобби не собирается. И тогда «непотопляемый» Боуфингер находит выход. Он будет снимать Кита Рэмзи «скрытой» камерой, создавая ситуации, соответствующие сценарию.

Релиз от: by
Тип релиза: BDRemux 1080p
Контейнер: MKV
Видео: MPEG-4 AVC Video 18992 kbps 1080p / 23,976 fps / 16:9 / High Profile 4.1
Аудио 1: Russian: 48 kHz, AC3, 2/0 (L,R) ch, ~192 kbps avg |Дубляж, Ист-Вест|
Аудио 2: DTS-HD Master Audio Russian 2204 kbps 5.1 / 48 kHz / 2204 kbps / 16-bit (DTS Core: 5.1 / 48 kHz / 1509 kbps / 16-bit) | R5
Аудио 3: Russian: 48 kHz, AC3, 3/2 (L,C,R,l,r) + LFE ch, ~448 kbps avg |Многоголосый закадровый, Позитив Мультимедиа|
Аудио 4: Russian: 48 kHz, AC3, 2/0 (L,R) ch, ~192 kbps avg |Многоголосый закадровый, Первый канал/ТВ3|
Аудио 5: Russian: 48 kHz, AC3, 2/0 (L,R) ch, ~192 kbps avg |Многоголосый закадровый, СТС|
Аудио 6: DTS-HD Master Audio Russian 2304 kbps 2.0 / 48 kHz / 2304 kbps / 16-bit (DTS Core: 5.1 / 48 kHz / 1509 kbps / 24-bit) | Премьер Мультимедиа
Аудио 7: DTS-HD Master Audio Russian 2210 kbps 5.1 / 48 kHz / 2210 kbps / 16-bit (DTS Core: 5.1 / 48 kHz / 1509 kbps / 16-bit) | Юрий Живов
Аудио 8: Russian: 48 kHz, AC3, 2/0 (L,R) ch, ~192 kbps avg |Одноголосый закадровый, Андрей Дольский|
Аудио 9: Russian: 48 kHz, AC3, 2/0 (L,R) ch, ~224 kbps avg |Одноголосый закадровый, Александр Кашкин|
Аудио 10: DTS-HD Master Audio English 2195 kbps 5.1 / 48 kHz / 2195 kbps / 16-bit (DTS Core: 5.1 / 48 kHz / 1509 kbps / 16-bit)

MediaInfo

General
Unique ID : 211850535164253638354733038420196744595 (0x9F60EDCF0F460DD19C2C41E9FA925D93)
Complete name : D:\фильмы\Bowfinger.1999.1080p.Bluray.Remux.Kinozal-Райдэн.mkv
Format : Matroska
Format version : Version 4 / Version 2
File size : 19.8 GiB
Duration : 1h 36mn
Overall bit rate mode : Variable
Overall bit rate : 29.3 Mbps
Encoded date : UTC 2023-04-28 14:31:31
Writing application : mkvmerge v6.9.1 ('Blue Panther') 32bit built on Apr 18 2014 18:15:44
Writing library : libebml v1.3.0 + libmatroska v1.4.1
Video
ID : 1
Format : AVC
Format/Info : Advanced Video Codec
Format profile : High@L4.1
Format settings, CABAC : Yes
Format settings, ReFrames : 4 frames
Codec ID : V_MPEG4/ISO/AVC
Duration : 1h 36mn
Bit rate mode : Variable
Maximum bit rate : 36.0 Mbps
Width : 1 920 pixels
Height : 1 080 pixels
Display aspect ratio : 16:9
Frame rate mode : Constant
Frame rate : 23.976 fps
Standard : NTSC
Color space : YUV
Chroma subsampling : 4:2:0
Bit depth : 8 bits
Scan type : Progressive
Title : Release for Kinozal by Райдэн
Language : English
Default : Yes
Forced : No
Color primaries : BT.709
Transfer characteristics : BT.709
Matrix coefficients : BT.709
Color range : Limited
Audio #1
ID : 2
Format : AC-3
Format/Info : Audio Coding 3
Mode extension : CM (complete main)
Format settings, Endianness : Big
Codec ID : A_AC3
Duration : 1h 36mn
Bit rate mode : Constant
Bit rate : 192 Kbps
Channel(s) : 2 channels
Channel positions : Front: L R
Sampling rate : 48.0 KHz
Bit depth : 16 bits
Compression mode : Lossy
Stream size : 133 MiB (1%)
Title : Dub (Ист-Вест)
Language : Russian
Default : Yes
Forced : No
Audio #2
ID : 3
Format : DTS
Format/Info : Digital Theater Systems
Format profile : MA / Core
Mode : 16
Format settings, Endianness : Big
Codec ID : A_DTS
Duration : 1h 36mn
Bit rate mode : Variable
Bit rate : Unknown / 1 509 Kbps
Channel(s) : 6 channels
Channel positions : Front: L C R, Side: L R, LFE
Sampling rate : 48.0 KHz
Bit depth : 16 bits
Compression mode : Lossless / Lossy
Title : MVO (R5)
Language : Russian
Default : No
Forced : No
Audio #3
ID : 4
Format : AC-3
Format/Info : Audio Coding 3
Mode extension : CM (complete main)
Format settings, Endianness : Big
Codec ID : A_AC3
Duration : 1h 36mn
Bit rate mode : Constant
Bit rate : 448 Kbps
Channel(s) : 6 channels
Channel positions : Front: L C R, Side: L R, LFE
Sampling rate : 48.0 KHz
Bit depth : 16 bits
Compression mode : Lossy
Stream size : 310 MiB (2%)
Title : MVO (Позитив Мультимедиа)
Language : Russian
Default : No
Forced : No
Audio #4
ID : 5
Format : AC-3
Format/Info : Audio Coding 3
Mode extension : CM (complete main)
Format settings, Endianness : Big
Codec ID : A_AC3
Duration : 1h 36mn
Bit rate mode : Constant
Bit rate : 192 Kbps
Channel(s) : 2 channels
Channel positions : Front: L R
Sampling rate : 48.0 KHz
Bit depth : 16 bits
Compression mode : Lossy
Stream size : 133 MiB (1%)
Title : MVO (Первый канал/ТВ3)
Language : Russian
Default : No
Forced : No
Audio #5
ID : 6
Format : AC-3
Format/Info : Audio Coding 3
Mode extension : CM (complete main)
Format settings, Endianness : Big
Codec ID : A_AC3
Duration : 1h 36mn
Bit rate mode : Constant
Bit rate : 192 Kbps
Channel(s) : 2 channels
Channel positions : Front: L R
Sampling rate : 48.0 KHz
Bit depth : 16 bits
Compression mode : Lossy
Stream size : 133 MiB (1%)
Title : MVO (CTC)
Language : Russian
Default : No
Forced : No
Audio #6
ID : 7
Format : DTS
Format/Info : Digital Theater Systems
Format profile : MA / Core
Mode : 16
Format settings, Endianness : Big
Codec ID : A_DTS
Duration : 1h 36mn
Bit rate mode : Variable
Bit rate : Unknown / 1 509 Kbps
Channel(s) : 2 channels
Channel positions : Front: L R
Sampling rate : 48.0 KHz
Bit depth : 24 bits
Compression mode : Lossless / Lossy
Title : DVO (Премьер Мультимедиа)
Language : Russian
Default : No
Forced : No
Audio #7
ID : 8
Format : DTS
Format/Info : Digital Theater Systems
Format profile : MA / Core
Mode : 16
Format settings, Endianness : Big
Codec ID : A_DTS
Duration : 1h 36mn
Bit rate mode : Variable
Bit rate : Unknown / 1 509 Kbps
Channel(s) : 6 channels
Channel positions : Front: L C R, Side: L R, LFE
Sampling rate : 48.0 KHz
Bit depth : 16 bits
Compression mode : Lossless / Lossy
Title : AVO (Юрий Живов)
Language : Russian
Default : No
Forced : No
Audio #8
ID : 9
Format : AC-3
Format/Info : Audio Coding 3
Mode extension : CM (complete main)
Format settings, Endianness : Big
Codec ID : A_AC3
Duration : 1h 36mn
Bit rate mode : Constant
Bit rate : 192 Kbps
Channel(s) : 2 channels
Channel positions : Front: L R
Sampling rate : 48.0 KHz
Bit depth : 16 bits
Compression mode : Lossy
Stream size : 133 MiB (1%)
Title : AVO (Андрей Дольский)
Language : Russian
Default : No
Forced : No
Audio #9
ID : 10
Format : AC-3
Format/Info : Audio Coding 3
Mode extension : CM (complete main)
Format settings, Endianness : Big
Codec ID : A_AC3
Duration : 1h 36mn
Bit rate mode : Constant
Bit rate : 224 Kbps
Channel(s) : 2 channels
Channel positions : Front: L R
Sampling rate : 48.0 KHz
Bit depth : 16 bits
Compression mode : Lossy
Stream size : 155 MiB (1%)
Title : AVO (Александр Кашкин)
Language : Russian
Default : No
Forced : No
Audio #10
ID : 11
Format : DTS
Format/Info : Digital Theater Systems
Format profile : MA / Core
Mode : 16
Format settings, Endianness : Big
Codec ID : A_DTS
Duration : 1h 36mn
Bit rate mode : Variable
Bit rate : Unknown / 1 509 Kbps
Channel(s) : 6 channels
Channel positions : Front: L C R, Side: L R, LFE
Sampling rate : 48.0 KHz
Bit depth : 16 bits
Compression mode : Lossless / Lossy
Language : English
Default : No
Forced : No
Text #1
ID : 12
Format : UTF-8
Codec ID : S_TEXT/UTF8
Codec ID/Info : UTF-8 Plain Text
Language : Russian
Default : No
Forced : No
Text #2
ID : 13
Format : UTF-8
Codec ID : S_TEXT/UTF8
Codec ID/Info : UTF-8 Plain Text
Language : English
Default : No
Forced : No
Menu
00:00:00.000 : en:00:00:00.000
00:05:43.759 : en:00:05:43.759
00:12:33.250 : en:00:12:33.250
00:23:04.923 : en:00:23:04.923
00:29:15.086 : en:00:29:15.086
00:37:09.059 : en:00:37:09.059
00:46:13.061 : en:00:46:13.061
00:56:53.617 : en:00:56:53.617
01:05:11.157 : en:01:05:11.157
01:12:13.787 : en:01:12:13.787
01:20:57.350 : en:01:20:57.350
01:29:48.716 : en:01:29:48.716

Скриншоты

[Profile]  [PM] 
Display posts:    
Reply to topic

Current time is: 20-Jul 01:33

All times are UTC + 2



You cannot post new topics in this forum
You cannot reply to topics in this forum
You cannot edit your posts in this forum
You cannot delete your posts in this forum
You cannot vote in polls in this forum
You cannot attach files in this forum
You cannot download files in this forum