Большой толстяк в городе / When Zachary Beaver Came to Town (Джон Шульц / John Schultz) [2003, США, драма, комедия, семейный, DVDRip] VO + Original Eng

Reply to topic
 
Author
Message

Wolf ®

Gender: Unknown

Longevity: 14 years

Posts: 3485

Reputation: 0 [+] [-]

Wolf · Post 12-Jun-2023 17:05

[Quote] 

Большой толстяк в городе / When Zachary Beaver Came to Town
Страна: США
Жанр: драма, комедия, семейный
Год выпуска: 2003
Продолжительность: 01:24:58
Перевод: Одноголосый закадровый
Субтитры: нет
Оригинальная аудиодорожка: английский
Режиссер: Джон Шульц / John Schultz
В ролях: Джонатан Липники, Коди Линли, Джесси Пеннингтон, Джейн Краковски, Эрик Столц, Кевин Корригэн, Сара Уэйлен, Луанна Стефенс, Хадсон Ли Лонг, Лу Перримен
Описание: Герой этого фильма Захарий Бивер — самый толстый мальчик в мире, приезжает в маленький тихий американский городок Гренджер, штат Техас. Здесь его ждут удивительные приключения и веселые проказы, а также встречи с новыми верными друзьями!
Кинопоиск - IMDb
Sample
Качество видео: DVDRip
Формат видео: AVI
Видео: 704x528 (1.33:1), 25 fps, XviD build 73 ~2067 kbps avg, 0.22 bit/pixel
Аудио: Russian (AC3, 2 ch, 192 kbps, 48.0 KHz) - VO
Аудио 2: English (AC3, 2 ch, 192 kbps, 48.0 KHz) - оригинал

MediaInfo

General
Complete name : W:\When.Zachary.Beaver.Came.to.Town.2003.DVDRip.avi
Format : AVI
Format/Info : Audio Video Interleave
File size : 1.46 GiB
Duration : 1 h 24 min
Overall bit rate : 2 467 kb/s
Writing application : VirtualDubMod 1.5.10.3 | www.virtualdub-fr.org || (build 2550/release)
Writing library : VirtualDubMod build 2550/release
Video
ID : 0
Format : MPEG-4 Visual
Format profile : Advanced Simple@L5
Format settings : BVOP1 / Custom Matrix
Format settings, BVOP : 1
Format settings, QPel : No
Format settings, GMC : No warppoints
Format settings, Matrix : Custom
Codec ID : XVID
Codec ID/Hint : XviD
Duration : 1 h 24 min
Bit rate : 2 069 kb/s
Width : 704 pixels
Height : 528 pixels
Display aspect ratio : 4:3
Frame rate : 25.000 FPS
Color space : YUV
Chroma subsampling : 4:2:0
Bit depth : 8 bits
Scan type : Progressive
Compression mode : Lossy
Bits/(Pixel*Frame) : 0.223
Stream size : 1.23 GiB (84%)
Writing library : XviD 73
Audio #1
ID : 1
Format : AC-3
Format/Info : Audio Coding 3
Codec ID : 2000
Duration : 1 h 24 min
Bit rate mode : Constant
Bit rate : 192 kb/s
Channel(s) : 2 channels
Channel positions : Front: L R
Sampling rate : 48.0 kHz
Frame rate : 31.250 FPS (1536 SPF)
Bit depth : 16 bits
Compression mode : Lossy
Stream size : 117 MiB (8%)
Alignment : Split accross interleaves
Interleave, duration : 40 ms (1.00 video frame)
Interleave, preload duratio : 500 ms
Service kind : Complete Main
Audio #2
ID : 2
Format : AC-3
Format/Info : Audio Coding 3
Codec ID : 2000
Duration : 1 h 24 min
Bit rate mode : Constant
Bit rate : 192 kb/s
Channel(s) : 2 channels
Channel positions : Front: L R
Sampling rate : 48.0 kHz
Frame rate : 31.250 FPS (1536 SPF)
Bit depth : 16 bits
Compression mode : Lossy
Stream size : 117 MiB (8%)
Alignment : Split accross interleaves
Interleave, duration : 40 ms (1.00 video frame)
Interleave, preload duratio : 500 ms
Service kind : Complete Main

Скриншоты


[Profile]  [PM] 
Display posts:    
Reply to topic

Current time is: 25-Jul 04:49

All times are UTC + 2



You cannot post new topics in this forum
You cannot reply to topics in this forum
You cannot edit your posts in this forum
You cannot delete your posts in this forum
You cannot vote in polls in this forum
You cannot attach files in this forum
You cannot download files in this forum