Пятна на солнце / Солнечные пятна / Macchie Solari / The Victim / Autopsy (Армандо Криспино / Armando Crispino) [1975, Италия, триллер, детектив, BDRip-AVC] [US transfer] VO (Вячеслав Котов) + Sub Eng + Original Ita + Eng

Reply to topic
 
Author
Message

Satyr ®

Gender: Unknown

Longevity: 15 years

Posts: 22045

Reputation: 56 [+] [-]

Satyr · Post 12-Jun-2023 17:05

[Quote] 

Пятна на солнце / Macchie Solari / The Victim Страна: Италия
Жанр: ужасы, триллер, детектив
Год выпуска: 1975
Продолжительность: 1:40:42-Перевод: одноголосый закадровый |Вячеслав Котов|
Субтитры: английские-Оригинальная аудиодорожка: английский
Оригинальная аудиодорожка: итальянский-Режиссер: Армандо Криспино / Armando Crispino-В ролях-Мимзи Фармер, Бэрри Праймус, Рэй Лавлок, Карло Каттанео, Анджела Гудвин, Гэби Вагнер, Массимо Серато, Эрнесто Колли, Леонардо Северини, Элеонора Морано-Описание-Аномально жаркая погода и многочисленные вспышки на солнце привели в Риме к всплеску суицидов и дополнительной нагрузке на патологоанатомов, у одного из которых, молодой девушки Симоны, начались на этой почве «глюки». Именно в эти жаркие деньки на ее рабочий стол попадает труп очередной самоубийцы, с которой Симона буквально день назад еще разговаривала. Поняв, что дело тут нечисто, и что молодая красавица вряд ли стала бы стрелять себе в голову, Симона начала искать реальные подтверждения своим догадкам, попав в круговорот опасных для ее жизни событий…-Качество видео: BDRip
Исходное видео: BDRemux 1080p
Контейнер: MKV-Видео: AVC, ~3000 kbps, 960x518 (1.85:1), 23.976 fps
Аудио: AC-3, 192 kbps, Dolby Digital, 2 ch, 48 KHz |VO Вячеслав Котов|
Аудио: AC-3, 224 kbps, Dolby Digital, 2 ch, 48 KHz |Dub (ita)|
Аудио: AC-3, 224 kbps, Dolby Digital, 2 ch, 48 KHz |Original|
Формат субтитров: softsub (SRT)
Главы: есть (не подписаны)-IMDb
Кинопоиск

MediaInfo

х264

VIDEO ENCODING
------------------------------
Encoding video to: D:\Temp\0013.264
x264 Q19.4 960x518 23.976fps (144866 frames)
avs4x26x.exe: -L x264_64.exe --crf 19.4 --preset placebo --level 4.1 --ref 14 --aq-mode 3 --aq-strength 0.77 --deblock -3:-2 --merange 48 --bframes 12 --me umh --no-mbtree --keyint 240 --colorprim bt709 --transfer bt709 --colormatrix bt709 --vbv-bufsize 62500 --vbv-maxrate 50000 --partitions p8x8,b8x8,i4x4,i8x8 --zones 143000,144866,q=30 --sar 1:1 --output "D:\Temp\0013.264" "D:\Temp\0013.avs"
raw [info]: 960x518p 1:1 @ 24000/1001 fps (cfr)
x264 [info]: using SAR=1/1
x264 [info]: using cpu capabilities: MMX2 SSE2Fast SSSE3 SSE4.2 AVX FMA3 BMI2 AVX2
x264 [info]: profile High, level 4.1, 4:2:0, 8-bit
x264 [info]: frame I:1052 Avg QP:18.67 size: 59652
x264 [info]: frame P:29038 Avg QP:20.09 size: 28876
x264 [info]: frame B:114776 Avg QP:22.20 size: 11933
x264 [info]: consecutive B-frames: 1.5% 1.7% 5.6% 14.6% 18.8% 45.2% 7.9% 2.1% 1.1% 0.6% 0.3% 0.3% 0.3%
x264 [info]: mb I I16..4: 1.9% 88.2% 9.9%
x264 [info]: mb P I16..4: 0.2% 12.6% 0.8% P16..4: 29.6% 40.7% 14.7% 0.0% 0.0% skip: 1.3%
x264 [info]: mb B I16..4: 0.0% 0.8% 0.1% B16..8: 43.2% 22.6% 4.7% direct: 6.8% skip:21.9% L0:47.4% L1:45.3% BI: 7.2%
x264 [info]: 8x8 transform intra:91.4% inter:62.0%
x264 [info]: direct mvs spatial:100.0% temporal:0.0%
x264 [info]: coded y,uvDC,uvAC intra: 95.3% 82.4% 48.1% inter: 42.5% 26.2% 0.9%
x264 [info]: i16 v,h,dc,p: 47% 15% 7% 31%
x264 [info]: i8 v,h,dc,ddl,ddr,vr,hd,vl,hu: 10% 6% 6% 11% 15% 14% 14% 11% 12%
x264 [info]: i4 v,h,dc,ddl,ddr,vr,hd,vl,hu: 14% 6% 3% 9% 15% 15% 14% 11% 11%
x264 [info]: i8c dc,h,v,p: 38% 26% 20% 16%
x264 [info]: Weighted P-Frames: Y:10.1% UV:6.1%
x264 [info]: ref P L0: 40.0% 10.7% 17.3% 6.9% 6.0% 4.2% 3.9% 2.0% 2.0% 1.6% 1.6% 1.3% 1.3% 1.2% 0.1% 0.0%
x264 [info]: ref B L0: 64.9% 12.4% 7.1% 3.8% 2.9% 2.4% 1.9% 1.2% 1.0% 0.9% 0.8% 0.5% 0.2%
x264 [info]: ref B L1: 93.4% 6.6%
x264 [info]: kb/s:2987.71
Format : Matroska
Format version : Version 2
File size : 2.57 GiB
Duration : 1 h 40 min
Overall bit rate : 3 649 kb/s
Frame rate : 23.976 FPS
Movie name : Солнечные пятна / Macchie Solari / The Victim
Encoded date : 2023-06-12 06:49:09 UTC
Writing application : mkvmerge v6.9.1 ('Blue Panther') 32bit built on Apr 18 2014 18:15:44
Writing library : libebml v1.3.0 + libmatroska v1.4.1
Cover : Yes
Attachments : cover.jpg
Video
ID : 1
Format : AVC
Format/Info : Advanced Video Codec
Format profile : High@L4.1
Format settings : CABAC / 14 Ref Frames
Format settings, CABAC : Yes
Format settings, Reference : 14 frames
Codec ID : V_MPEG4/ISO/AVC
Duration : 1 h 40 min
Bit rate : 2 937 kb/s
Width : 960 pixels
Height : 518 pixels
Display aspect ratio : 1.85:1
Frame rate mode : Constant
Frame rate : 23.976 (24000/1001) FPS
Color space : YUV
Chroma subsampling : 4:2:0
Bit depth : 8 bits
Scan type : Progressive
Bits/(Pixel*Frame) : 0.246
Stream size : 2.07 GiB (80%)
Title : Macchie Solari / The Victim_CW_RGTru
Writing library : x264 core 164 r3107 a8b68eb
Encoding settings : cabac=1 / ref=14 / deblock=1:-3:-2 / analyse=0x3:0x113 / me=umh / subme=11 / psy=1 / psy_rd=1.00:0.00 / mixed_ref=1 / me_range=48 / chroma_me=1 / trellis=2 / 8x8dct=1 / cqm=0 / deadzone=21,11 / fast_pskip=0 / chroma_qp_offset=-2 / threads=16 / lookahead_threads=4 / sliced_threads=0 / nr=0 / decimate=1 / interlaced=0 / bluray_compat=0 / constrained_intra=0 / bframes=12 / b_pyramid=2 / b_adapt=2 / b_bias=0 / direct=3 / weightb=1 / open_gop=0 / weightp=2 / keyint=240 / keyint_min=23 / scenecut=40 / intra_refresh=0 / rc_lookahead=60 / rc=crf / mbtree=0 / crf=19.4 / qcomp=0.60 / qpmin=0 / qpmax=69 / qpstep=4 / vbv_maxrate=50000 / vbv_bufsize=62500 / crf_max=0.0 / nal_hrd=none / filler=0 / ip_ratio=1.40 / pb_ratio=1.30 / aq=3:0.77 / zones=143000,144866,q=30
Language : Russian
Default : Yes
Forced : No
Color range : Limited
Color primaries : BT.709
Transfer characteristics : BT.709
Matrix coefficients : BT.709
Audio #1
ID : 2
Format : AC-3
Format/Info : Audio Coding 3
Commercial name : Dolby Digital
Codec ID : A_AC3
Duration : 1 h 40 min
Bit rate mode : Constant
Bit rate : 192 kb/s
Channel(s) : 2 channels
Channel layout : L R
Sampling rate : 48.0 kHz
Frame rate : 31.250 FPS (1536 SPF)
Compression mode : Lossy
Stream size : 138 MiB (5%)
Title : VO Вячеслав Котов
Language : Russian
Service kind : Complete Main
Default : Yes
Forced : No
Audio #2
ID : 3
Format : AC-3
Format/Info : Audio Coding 3
Commercial name : Dolby Digital
Codec ID : A_AC3
Duration : 1 h 40 min
Bit rate mode : Constant
Bit rate : 224 kb/s
Channel(s) : 2 channels
Channel layout : L R
Sampling rate : 48.0 kHz
Frame rate : 31.250 FPS (1536 SPF)
Compression mode : Lossy
Stream size : 161 MiB (6%)
Title : Dub (ita)
Language : Italian
Service kind : Complete Main
Default : No
Forced : No
Audio #3
ID : 4
Format : AC-3
Format/Info : Audio Coding 3
Commercial name : Dolby Digital
Codec ID : A_AC3
Duration : 1 h 40 min
Bit rate mode : Constant
Bit rate : 224 kb/s
Channel(s) : 2 channels
Channel layout : L R
Sampling rate : 48.0 kHz
Frame rate : 31.250 FPS (1536 SPF)
Compression mode : Lossy
Stream size : 161 MiB (6%)
Title : Original
Language : English
Service kind : Complete Main
Default : No
Forced : No
Text #1
ID : 5
Format : UTF-8
Codec ID : S_TEXT/UTF8
Codec ID/Info : UTF-8 Plain Text
Language : English
Default : No
Forced : No
Text #2
ID : 6
Format : UTF-8
Codec ID : S_TEXT/UTF8
Codec ID/Info : UTF-8 Plain Text
Title : SDH
Language : English
Default : No
Forced : No
Menu
00:00:00.000 : 00:00:00.000
00:18:28.608 : 00:18:28.608
00:34:49.087 : 00:34:49.087
00:54:13.751 : 00:54:13.751
01:10:49.245 : 01:10:49.245
01:30:30.425 : 01:30:30.425

Скриншоты

Доп. инфо

На сколько вижу по артикуляции, актеры говорят на английском. Соответственно, оригинал - "английский". Но, так как фильм итальянский, то оставил и итальнскую дорожку. Для ценителей.
[Profile]  [PM] 
Display posts:    
Reply to topic

Current time is: 25-Jul 04:48

All times are UTC + 2



You cannot post new topics in this forum
You cannot reply to topics in this forum
You cannot edit your posts in this forum
You cannot delete your posts in this forum
You cannot vote in polls in this forum
You cannot attach files in this forum
You cannot download files in this forum