Книга джунглей / The Jungle Book (Стивен Соммерс / Stephen Sommers) [1994, США, приключения, семейный, WEB-DLRip] AVO (Михаил Иванов) + Original Eng

Reply to topic
 
Author
Message

Satyr ®

Gender: Unknown

Longevity: 15 years

Posts: 22031

Reputation: 56 [+] [-]

Satyr · Post 13-Jun-2023 05:25

[Quote] 

Книга джунглей / The Jungle Book
Страна: США
Жанр: приключения, семейный
Год выпуска: 1994
Продолжительность: 01:51:05
Перевод: Авторский (одноголосый закадровый) Михаил Иванов
Субтитры: нет
Оригинальная аудиодорожка: Английский
Режиссер: Стивен Соммерс / Stephen Sommers
В ролях: Джейсон Скотт Ли, Кэри Элвес, Лина Хиди, Сэм Нил, Джон Клиз, Джейсон Флеминг, Стэфан Калифа, Рон Донаки
Описание: Выросший в джунглях среди диких животных Маугли влюбляется в Кэтлин, дочку полковника Джефри Брайдона, с которой он был знаком еще до того, как потерялся в джунглях. Но подлый жених Кэтлин, капитан Бун, получив от неё отказ, похищает её, чтобы заставить Маугли привести его к сокровищам затерянного обезьяньего города ...

Сэмпл: https://disk.yandex.ru/i/JhfZeW6bJPqp2g
Качество видео: WEB-DLRip (Исходник WEB-DL 1080p)
Формат видео: AVI
Видео: XviD 73, 720x304, (2,35:1), 23,976 fps, 1989 Кбит/с, 8 бит, 0.37 bit/pixel
Аудио: Руссикй Русский (АС3, 2 ch (Front: L R), 48,0 KHz, 192 Kbps, mono) Михаил Иванов
Аудио 2: Английский (АС3, 6 ch (Front: L C R, Side: L R, LFE), 48,0 KHz, 448 Kbps Оригинал

MediaInfo

ОбщееПолное имя                               : F:\На трекер\Книга джунглей  (приключения,, семейный 1994 год).aviФормат                                   : AVIФормат/Информация                        : Audio Video InterleaveПрофиль формата                          : OpenDMLРазмер файла                             : 2,05 ГбайтПродолжительность                        : 1 ч. 51 м.Общий поток                              : 2647 Кбит/секПрограмма кодирования                    : VirtualDubMod 1.5.10.2 (build 2540/release)Библиотека кодирования                   : VirtualDubMod build 2540/release
ВидеоИдентификатор : 0Формат : MPEG-4 VisualПрофиль формата : Advanced Simple@L5Параметр BVOP формата : 2Параметр QPel формата : НетПараметр GMC формата : Без точки переходаПараметр матрицы формата : ВыборочнаяИдентификатор кодека : XVIDИдентификатор кодека/Подсказка : XviDПродолжительность : 1 ч. 51 м.Битрейт : 1989 Кбит/секШирина : 720 пикселейВысота : 304 пикселяСоотношение сторон : 2,35:1Частота кадров : 23,976 (23976/1000) кадра/секЦветовое пространство : YUVСубдискретизация насыщенности : 4:2:0Битовая глубина : 8 битТип развёртки : ПрогрессивнаяМетод сжатия : С потерямиБит/(Пиксели*Кадры) : 0.379Размер потока : 1,54 Гбайт (75%)Библиотека кодирования : XviD 73
Аудио #1Идентификатор : 1Формат : AC-3Формат/Информация : Audio Coding 3Расширение режима : CM (complete main)Параметр Endianness формата : BigИдентификатор кодека : 2000Продолжительность : 1 ч. 51 м.Вид битрейта : ПостоянныйБитрейт : 192 Кбит/секКаналы : 2 каналаРасположение каналов : Front: L RЧастота : 48,0 КГцЧастота кадров : 31,250 кадров/сек (1536 spf)Метод сжатия : С потерямиРазмер потока : 153 Мбайт (7%)Выравнивание : Разделение по промежуткамПродолжительность промежутка : 42 мс. (1,00 видеокадр)Время предзагрузки промежутка : 500 мс.
Аудио #2Идентификатор : 2Формат : AC-3Формат/Информация : Audio Coding 3Расширение режима : CM (complete main)Параметр Endianness формата : BigИдентификатор кодека : 2000Продолжительность : 1 ч. 51 м.Вид битрейта : ПостоянныйБитрейт : 448 Кбит/секКаналы : 6 каналовРасположение каналов : Front: L C R, Side: L R, LFEЧастота : 48,0 КГцЧастота кадров : 31,250 кадров/сек (1536 spf)Метод сжатия : С потерямиРазмер потока : 356 Мбайт (17%)Выравнивание : Разделение по промежуткамПродолжительность промежутка : 42 мс. (1,00 видеокадр)Время предзагрузки промежутка : 500 мс.

Скриншот c названием фильма

Скриншоты

[Profile]  [PM] 
Display posts:    
Reply to topic

Current time is: 20-Jul 02:13

All times are UTC + 2



You cannot post new topics in this forum
You cannot reply to topics in this forum
You cannot edit your posts in this forum
You cannot delete your posts in this forum
You cannot vote in polls in this forum
You cannot attach files in this forum
You cannot download files in this forum