Джейсон отправляется в ад: Последняя пятница / Jason Goes to Hell: The Final Friday (Адам Маркус / Adam Marcus) [1993, США, Ужасы, фантастика, мистика, BDRip] MVO (СВ-Дубль) + Original Eng

Reply to topic
 
Author
Message

Satyr ®

Gender: Unknown

Longevity: 15 years

Posts: 22031

Reputation: 56 [+] [-]

Satyr · Post 13-Jun-2023 05:25

[Quote] 

Джейсон отправляется в ад: Последняя пятница / Jason Goes to Hell: The Final Friday
Страна: США
Жанр: Ужасы, фантастика, мистика
Год выпуска: 1993
Продолжительность: 01:27:44
Перевод: Профессиональный (многоголосый закадровый) СВ-Дубль
Субтитры: нет
Оригинальная аудиодорожка: английский
Режиссер: Адам Маркус / Adam Marcus
В ролях: Джон Д. Лемэй, Кари Кигэн, Кэйн Ходдер, Стивен Уильямс, Стивен Калп, Эрин Грэй, Расти Швиммер, Ричард Гант, Лесли Джордан, Билли Грин Буш
Описание: Попавший в ловушку, устроенную ФБР и взорванный бомбой, Джейсон возвращается к жизни в теле чернокожего патологоанатома, делавшего вскрытие обгоревшего трупа маньяка. Начинаются немотивированные и беспричинные убийства невинных людей перемещающегося из тела в тело Джейсона.
Общественность предлагает охотнику за маньяками Крейтону Дьюку пятьсот тысяч долларов за то, чтобы тот уничтожил Джейсона. Стивен Фриман, живущий поблизости от Кристального озера, догадывается, что Джейсон ищет оставшихся в живых членов своей семьи, чтобы войти в «родное» тело. Он пытается защитить свою подругу Джессику, которая является единственным потомком семейки Вурхисов…
Доп. информация: Перевод СВ-Дубль записан с телеканала «Настоящее Страшное Телевидение» и найден в социальных сетях
За синхронизацию дорожки спасибо rapiro191 с трекера кинозал тв
Сэмпл: http://sendfile.su/1669836
Релиз:
Автор: sociolog_melvas
Качество видео: BDRip (источник: BitHQ / Blu-ray / 1080p) https://torrentsland.com.ua/forum/viewtopic.php?t=5416391
Формат видео: AVI
Видео: 704x400 (1.76:1), 23,976 fps, XviD build 65 ~1779 kbps avg, 0.264 bit/pixel
Аудио: 48 kHz, AC3 Dolby Digital, 2/0 (L,R) ch, ~192 kbps avg (MVO.СВ-Дубль)
Аудио 2: 48 kHz, AC3 Dolby Digital, 3/2 (L,C,R,l,r) + LFE ch, ~384 kbps avg (ENG)

MediaInfo

H:\Разное\Friday.13_(1-12)\09 Jason goes to Hell The Final Friday) (1993).avi   General      Complete name : H:\Разное\Friday.13_(1-12)\09 Jason goes to Hell The Final Friday) (1993).avi      Format : AVI      Format/Info : Audio Video Interleave      File size : 1.45 GiB      Duration : 1 h 27 min      Overall bit rate : 2 369 kb/s      Writing application : VirtualDubModRus 1.5.10.2 (build 2542/release)   Video #0      ID : 0      Format : MPEG-4 Visual      Format profile : Advanced Simple@L5      Format settings : BVOP1 / Custom Matrix      Format settings, BVOP : 1      Format settings, QPel : No      Format settings, GMC : No warppoints      Format settings, Matrix : Custom      Codec ID : XVID      Codec ID/Hint : XviD      Duration : 1 h 27 min      Bit rate : 1 779 kb/s      Width : 704 pixels      Height : 400 pixels      Display aspect ratio : 16:9      Frame rate : 23.976 (24000/1001) FPS      Color space : YUV      Chroma subsampling : 4:2:0      Bit depth : 8 bits      Scan type : Progressive      Compression mode : Lossy      Bits/(Pixel*Frame) : 0.264      Stream size : 1.09 GiB (75%)      Writing library : XviD 65   Audio #1      ID : 1      Format : AC-3      Format/Info : Audio Coding 3      Codec ID : 2000      Duration : 1 h 27 min      Bit rate mode : Constant      Bit rate : 192 kb/s      Channel(s) : 2 channels      Channel positions : Front: L R      Sampling rate : 48.0 kHz      Frame rate : 31.250 FPS (1536 SPF)      Bit depth : 16 bits      Compression mode : Lossy      Stream size : 120 MiB (8%)      Alignment : Split accross interleaves      Interleave, duration : 42  ms (1.00 video frame)      Interleave, preload duration : 500  ms      Service kind : Complete Main   Audio #2      ID : 2      Format : AC-3      Format/Info : Audio Coding 3      Codec ID : 2000      Duration : 1 h 27 min      Bit rate mode : Constant      Bit rate : 384 kb/s      Channel(s) : 6 channels      Channel positions : Front: L C R, Side: L R, LFE      Sampling rate : 48.0 kHz      Frame rate : 31.250 FPS (1536 SPF)      Bit depth : 16 bits      Compression mode : Lossy      Stream size : 241 MiB (16%)      Alignment : Split accross interleaves      Interleave, duration : 42  ms (1.00 video frame)      Interleave, preload duration : 500  ms      Service kind : Complete Main

Скриншот c названием фильма

Скриншоты

[Profile]  [PM] 
Display posts:    
Reply to topic

Current time is: 20-Jul 02:11

All times are UTC + 2



You cannot post new topics in this forum
You cannot reply to topics in this forum
You cannot edit your posts in this forum
You cannot delete your posts in this forum
You cannot vote in polls in this forum
You cannot attach files in this forum
You cannot download files in this forum