Суббота, воскресенье и пятница / Sabato, domenica e venerdi (Франко Кастеллано / Franco Castellano, Паскуале Феста Кампаниле / Pasquale Festa Campanile, Серджо Мартино / Sergio Martino, Джузеппе Моччиа / Giuseppe Moccia) [1979, Италия, Испания, Комед

Reply to topic
 
Author
Message

Satyr ®

Gender: Unknown

Longevity: 15 years

Posts: 22031

Reputation: 56 [+] [-]

Satyr · Post 13-Jun-2023 05:25

[Quote] 

Суббота, воскресенье и пятница / Sabato, domenica e venerdi / Saturday, Sunday and Friday
Жанр: Комедия
Страна: Италия, Испания
Студия: As Films Producción, Dania Film, Medusa Distribuzione, National Cinematografica
Год выпуска: 1979
Продолжительность: 01:49:25
Перевод #1: Профессиональный (многоголосый закадровый)
Перевод #2: Авторский (одноголосый закадровый) Сергей Козлов
Субтитры: нет
Оригинальная аудиодорожка: итальянский
Режиссеры: Франко Кастеллано / Franco Castellano, Паскуале Феста Кампаниле / Pasquale Festa Campanile, Серджо Мартино / Sergio Martino, Джузеппе "Пиполо" Моччиа / Giuseppe "Pipolo" Moccia
В ролях:
Эдвиж Фенек / Edwige Fenech ... Tokimoto, the Japanese engineer (segment "Sabato")
Лино Банфи / Lino Banfi ... Nicola La Brocca (segment "Sabato")
Даниэле Варгас / Daniele Vargas ... Il direttore (segment "Sabato")
Лори Дель Санто / Lory Del Santo ... «Baby» (segment "Sabato")
Милена Вукотич / Milena Vukotic ... Clelia (segment "Sabato")
Барбара Буше / Barbara Bouchet ... Enza (segment "Domenica")
Микеле Плачидо / Michele Placido ... Mario (segment "Domenica")
Антонио Феррандис / Antonio Ferrandis ... Enza's father (segment "Domenica")
Марго Коттенс / Margot Cottens ... Enza's mother (segment "Domenica")
Мануэль Сарсо / Manuel Zarzo ... Camillo (segment "Domenica")
Адриано Челентано / Adriano Celentano ... Constantin (segment "Venerdì")
Лова Мур / Lova Moor ... Jacqueline (segment "Venerdì")
Мануэль Галлардо / Manuel Gallardo ... Fred (segment "Venerdì")
Эрнст Толе / Ernst Thole ... Ambrose (segment "Venerdì")
Элио Кроветто / Elio Crovetto ... Frank (segment "Venerdì")
Описание: Фильм состоит из трёх новелл - «Суббота», «Воскресенье», «Пятница».
Никола (Лино Банфи) работает бухгалтером в итальянском филиале крупной японской компании "Zaikoto". Так как он единственный в фирме владеет английским языком, директор поручает ему встретить в аэропорту и сопровождать японского инженера. Инженером оказалась очень красивая девушка Токимото (Эдвиж Фенек), чья бабушка была гейшей. Несколько дней, проведённых рядом с ней, коренным образом изменили жизнь Николы...
Герой второй новеллы Марио Сальветти (Микеле Плачидо) работает водителем грузовика в транспортной фирме. Однажды он просыпается из-за потоков воды, льющихся с потолка. Соседка наверху (Барбара Буше) решила утопиться в ванной, Марио её спасает и его судьба резко меняется. Энца просит его сыграть роль жениха, когда приедет из Сицилии её отец. Согласившись, Марио должен будет выходить из разных двусмысленных ситуаций....
Константен (Адриано Челентано), главный герой третьей новеллы "Пятница" - эксцентричный импресарио, имеет всё: деньги, самых красивых женщин, даже собственный стриптиз-балет. Одна из танцовщиц, Жаклин (Лова Мур), влюбляется в гангстера и собирается выйти за него замуж. Константен старается сделать всё, чтобы удержать её от этого шага...

Дополнительная информация:
Релиз:
Исходник найден в сети.
Автор рипа: pmv
Большое спасибо за:
- аудиодорожки с русской озвучкой (https://torrentsland.com.ua/forum/viewtopic.php?t=6093089) - sss777sss
- синхронизацию звуковых дорожек - pmv

ПРОСЬБА к СКАЧАВШИМ. НЕ УХОДИТЕ С РАЗДАЧИ, ПОМОГИТЕ ДРУГИМ СКАЧАТЬ!!!
Качество видео: WEB-DLRip-AVC
Формат видео: MKV
Видео: AVC (H264), 1152x634 (16:9), 25 fps, 2120 kbps, 0.116 bits/pixel
Аудио #1: AC3, 48 KHz, stereo (2 ch), 192 kbps – русский MVO
Аудио #2: AC3, 48 KHz, stereo (2 ch), 192 kbps – русский AVO
Аудио #3: AC3, 48 KHz, stereo (2 ch), 192 kbps – итальянский

MediaInfo

GeneralUnique ID                      : 120972229787441275074673366468346537754 (0x5B02676B25C94B77995D0F53973C671A)Complete name                  : D:\torrents\Sabato domenica e venerdi (1979, ru_MVO,VO+it).mkvFormat                         : MatroskaFormat version                 : Version 4 / Version 2File size                      : 2.06 GiBDuration                       : 1 h 49 minOverall bit rate               : 2 698 kb/sEncoded date                   : UTC 2023-06-08 22:06:03Writing application            : mkvmerge v77.0 ('Elemental') 64-bitWriting library                : libebml v1.4.4 + libmatroska v1.7.1
VideoID : 1Format : AVCFormat/Info : Advanced Video CodecFormat profile : High@L4.1Format settings, CABAC : YesFormat settings, RefFrames : 7 framesCodec ID : V_MPEG4/ISO/AVCDuration : 1 h 49 minBit rate : 2 120 kb/sWidth : 1 152 pixelsHeight : 634 pixelsDisplay aspect ratio : 16:9Frame rate mode : ConstantFrame rate : 25.000 FPSColor space : YUVChroma subsampling : 4:2:0Bit depth : 8 bitsScan type : ProgressiveBits/(Pixel*Frame) : 0.116Stream size : 1.62 GiB (79%)Writing library : x264 core 164 r3095 baee400Encoding settings : cabac=1 / ref=7 / deblock=1:-1:-1 / analyse=0x3:0x113 / me=umh / subme=9 / psy=1 / psy_rd=1.00:0.00 / mixed_ref=1 / me_range=24 / chroma_me=1 / trellis=1 / 8x8dct=1 / cqm=0 / deadzone=21,11 / fast_pskip=1 / chroma_qp_offset=-2 / threads=29 / lookahead_threads=2 / sliced_threads=0 / nr=0 / decimate=1 / interlaced=0 / bluray_compat=0 / constrained_intra=0 / bframes=7 / b_pyramid=2 / b_adapt=1 / b_bias=0 / direct=1 / weightb=1 / open_gop=0 / weightp=2 / keyint=250 / keyint_min=25 / scenecut=40 / intra_refresh=0 / rc_lookahead=40 / rc=2pass / mbtree=1 / bitrate=2120 / ratetol=1.0 / qcomp=0.60 / qpmin=0 / qpmax=69 / qpstep=4 / cplxblur=20.0 / qblur=0.5 / ip_ratio=1.40 / aq=1:1.00Default : YesForced : NoColor range : LimitedColor primaries : BT.709Transfer characteristics : BT.709Matrix coefficients : BT.709
Audio #1ID : 2Format : AC-3Format/Info : Audio Coding 3Format settings, Endianness : BigCodec ID : A_AC3Duration : 1 h 49 minBit rate mode : ConstantBit rate : 192 kb/sChannel(s) : 2 channelsChannel positions : Front: L RSampling rate : 48.0 kHzFrame rate : 31.250 FPS (1536 SPF)Bit depth : 16 bitsCompression mode : LossyStream size : 150 MiB (7%)Language : RussianService kind : Complete MainDefault : YesForced : No
Audio #2ID : 3Format : AC-3Format/Info : Audio Coding 3Format settings, Endianness : BigCodec ID : A_AC3Duration : 1 h 49 minBit rate mode : ConstantBit rate : 192 kb/sChannel(s) : 2 channelsChannel positions : Front: L RSampling rate : 48.0 kHzFrame rate : 31.250 FPS (1536 SPF)Bit depth : 16 bitsCompression mode : LossyStream size : 150 MiB (7%)Language : RussianService kind : Complete MainDefault : NoForced : No
Audio #3ID : 4Format : AC-3Format/Info : Audio Coding 3Format settings, Endianness : BigCodec ID : A_AC3Duration : 1 h 49 minBit rate mode : ConstantBit rate : 192 kb/sChannel(s) : 2 channelsChannel positions : Front: L RSampling rate : 48.0 kHzFrame rate : 31.250 FPS (1536 SPF)Bit depth : 16 bitsCompression mode : LossyStream size : 150 MiB (7%)Language : ItalianService kind : Complete MainDefault : NoForced : No

Скриншот c названием фильма

МОИ РАЗДАЧИ НА РУТРЕКЕРЕ: https://torrentsland.com.ua/forum/tracker.php?rid=27390064
[Profile]  [PM] 
Display posts:    
Reply to topic

Current time is: 20-Jul 02:11

All times are UTC + 2



You cannot post new topics in this forum
You cannot reply to topics in this forum
You cannot edit your posts in this forum
You cannot delete your posts in this forum
You cannot vote in polls in this forum
You cannot attach files in this forum
You cannot download files in this forum