Читая мысли / Like Minds / Murderous Intent (Грегори Рид / Gregory Read) [2006, Австралия, Великобритания, триллер, криминал, детектив, WEB-DL 1080p] MVO + Sub Eng + Original Eng

Reply to topic
 
Author
Message

Faust ®

Gender: Unknown

Longevity: 12 years

Posts: 23187

Reputation: 0 [+] [-]

Faust · Post 13-Jun-2023 09:30

[Quote] 

Читая мысли / Like Minds / Murderous Intent
Страна: Австралия, Великобритания
Жанр: триллер, криминал, детектив
Год выпуска: 2006
Продолжительность: 01:49:27
Перевод: Профессиональный (многоголосый закадровый)
Субтитры: английские
Оригинальная аудиодорожка: английский
Режиссер: Грегори Рид / Gregory Read
В ролях: Эдди Редмэйн, Том Стёрридж, Тони Коллетт, Ричард Роксбург, Кейт Маберли, Джон Овертон, Амит Шах, Дэвид Трелфолл, Катрин Брэдшоу, Патрик Мэлахайд
Описание: Криминальный психолог Салли Роу должна решить, достаточно ли улик для обвинения в убийстве 17-летнего Алекса Форбса, выстрелом оборвавшего жизнь своего одноклассника Найджела. Салли приходится нелегко, так как влиятельный отец Алекса давит на следствие изо всех сил. Но, как выясняется, дело не только в отце мальчика — даже погибшим Найджел оказывает на Алекса странное, поистине гипнотическое воздействие.

Доп. информация: К скачанному с зарубежного трекера WEB-DL 1080p добавлена дорожка с русской озвучкой, взятая из раздачи КВладимир1. "Дутая" дорожка преобразована в стерео, чувствительный рассинхрон устранён.
Сэмпл: http://sendfile.su/1669827
Тип релиза: WEB-DL 1080p
Контейнер: MKV
Видео: AVC, 1920x1080, 16:9, 23.976 fps, 13500 kbps
Аудио: AC3 Dolby Digital, 48 kHz, 2/0 ch, 192 kbps, Russian MVO
Аудио 2: E-AC3 Dolby Digital, 48 kHz, 3/2 (L,C,R,l,r) + LFE ch, 640 kbps, Original
Формат субтитров: softsub (SRT)

MediaInfo

GeneralUnique ID                                : 329239449324391975028384106284500930896 (0xF7B1362074C4114C1D8B6CA96CFC5150)Complete name                            : C:\Downloads\Like.Minds.2006.1080p.WEB-DL.mkvFormat                                   : MatroskaFormat version                           : Version 4File size                                : 10.9 GiBDuration                                 : 1 h 49 minOverall bit rate                         : 14.3 Mb/sFrame rate                               : 23.976 FPSEncoded date                             : 2023-06-10 14:11:24 UTCWriting application                      : mkvmerge v38.0.0 ('The Silent Type') 64-bitWriting library                          : libebml v1.3.9 + libmatroska v1.5.2
VideoID : 1Format : AVCFormat/Info : Advanced Video CodecFormat profile : High@L4Format settings : CABAC / 4 Ref FramesFormat settings, CABAC : YesFormat settings, Reference frames : 4 framesCodec ID : V_MPEG4/ISO/AVCDuration : 1 h 49 minBit rate : 13.5 Mb/sWidth : 1 920 pixelsHeight : 1 080 pixelsDisplay aspect ratio : 16:9Frame rate mode : ConstantFrame rate : 23.976 (24000/1001) FPSColor space : YUVChroma subsampling : 4:2:0Bit depth : 8 bitsScan type : ProgressiveBits/(Pixel*Frame) : 0.271Stream size : 10.3 GiB (94%)Language : EnglishDefault : YesForced : NoColor range : LimitedColor primaries : BT.709Transfer characteristics : BT.709Matrix coefficients : BT.709
Audio #1ID : 2Format : AC-3Format/Info : Audio Coding 3Commercial name : Dolby DigitalCodec ID : A_AC3Duration : 1 h 49 minBit rate mode : ConstantBit rate : 192 kb/sChannel(s) : 2 channelsChannel layout : L RSampling rate : 48.0 kHzFrame rate : 31.250 FPS (1536 SPF)Compression mode : LossyStream size : 150 MiB (1%)Language : RussianService kind : Complete MainDefault : YesForced : No
Audio #2ID : 3Format : E-AC-3Format/Info : Enhanced AC-3Commercial name : Dolby Digital PlusCodec ID : A_EAC3Duration : 1 h 49 minBit rate mode : ConstantBit rate : 640 kb/sChannel(s) : 6 channelsChannel layout : L R C LFE Ls RsSampling rate : 48.0 kHzFrame rate : 31.250 FPS (1536 SPF)Compression mode : LossyStream size : 501 MiB (4%)Title : EnglishLanguage : EnglishService kind : Complete MainDefault : NoForced : No
TextID : 4Format : UTF-8Codec ID : S_TEXT/UTF8Codec ID/Info : UTF-8 Plain TextDuration : 1 h 48 minBit rate : 52 b/sFrame rate : 0.237 FPSCount of elements : 1537Stream size : 41.4 KiB (0%)Title : EnglishLanguage : EnglishDefault : NoForced : No

Скриншоты

[Profile]  [PM] 
Display posts:    
Reply to topic

Current time is: 20-Jul 02:10

All times are UTC + 2



You cannot post new topics in this forum
You cannot reply to topics in this forum
You cannot edit your posts in this forum
You cannot delete your posts in this forum
You cannot vote in polls in this forum
You cannot attach files in this forum
You cannot download files in this forum