Ваниль и шоколад / Vaniglia e cioccolato / Vanilla and Chocolate (Чиро Ипполито / Ciro Ippolito) [2004, Италия, драма, мелодрама, WEB-DL 1080p] DVO + Sub Eng + Original Ita

Reply to topic
 
Author
Message

Faust ®

Gender: Unknown

Longevity: 12 years

Posts: 23187

Reputation: 0 [+] [-]

Faust · Post 14-Jun-2023 01:55

[Quote] 

Ваниль и шоколад / Vaniglia e cioccolato / Vanilla and Chocolate
Страна: Италия
Студия: Ciro Ippolito
Жанр: драма, мелодрама
Год выпуска: 2004
Продолжительность: 01:38:53
Перевод: Профессиональный (двухголосый закадровый)
Субтитры: английские - Full
Оригинальная аудиодорожка: итальянский
Режиссер: Чиро Ипполито / Ciro Ippolito
В ролях: Мария Грация Кучинотта, Алессандро Прециози, Хоакин Кортес, Роберта Алиберти, Серра Йилмаз, Эрнесто Махье, Памела Сайно, Личиния Лентини
Описание: Два роскошных аромата, ваниль и шоколад, столь же разные, сколь и утонченные. Именно такие, как любящая супружеская пара: открытая и доверчивая Пенелопа (для друзей Пепе) и ее безнадежно неверный муж Андреа. И вот, когда Пепе в очередной раз узнает о новой измене Андреа, она принимает решение оставить его и троих их детей и укрыться в доме на побережье, ранее принадлежавшем ее бабушке. Уединение Пепе знаменует начало чувственного путешествия, как для нее, так и для Андреа, которого ее отъезд повергает в шок...
Доп. информация:
- Источник видео: Vanilla.and.Chocolate.2004.1080p.AMZN.WEB-DL.DDP2.0.H.264-SCOPE
- Источник аудио: русская дорожка с раздачи Trans_X, итальянская дорожка с ДВД-Видео с раздачи JungleBrother - она отличается по качеству, спектру и по звучанию от дорожки с Амазона
- Синхронизация аудио-дорожек: Нечипорук

Тип релиза: WEB-DL 1080p
Контейнер: MKV
Видео: H.264/AVC, 1920x816, 2.35:1, 8370 kb/s, 25 fps
Аудио 1: Русский, AC3, 2.0, 48 kHz, 224 kbps / DVO
Аудио 2: Итальянский, AC3, 2.0, 48 kHz, 192 kbps / Original DVD
Аудио 3: Итальянский, E-AC3, 2.0, 48 kHz, 224 kbps / Original Amazon
Формат субтитров: softsub (SRT)

MediaInfo

GeneralUnique ID                      : 267125673448100428890629429879111865189 (0xC8F68889064FC0CAAE7C28552CA2D365)Complete name                  : K:\Vanilla.and.Chocolate.2004.1080p.AMZN.WEB-DL.H.264-Нечипорук.mkvFormat                         : MatroskaFormat version                 : Version 4File size                      : 6.23 GiBDuration                       : 1 h 38 minOverall bit rate               : 9 013 kb/sMovie name                     : Vanilla.and.Chocolate.2004.1080p.AMZN.WEB-DL.H.264-НечипорукEncoded date                   : UTC 2023-06-04 22:51:35Writing application            : mkvmerge v77.0 ('Elemental') 64-bitWriting library                : libebml v1.4.4 + libmatroska v1.7.1Cover                          : YesAttachments                    : cover.jpg
VideoID : 1Format : AVCFormat/Info : Advanced Video CodecFormat profile : High@L4Format settings : CABAC / 4 Ref FramesFormat settings, CABAC : YesFormat settings, Reference fra : 4 framesCodec ID : V_MPEG4/ISO/AVCDuration : 1 h 38 minBit rate mode : ConstantBit rate : 8 370 kb/sNominal bit rate : 10 000 kb/sWidth : 1 920 pixelsHeight : 816 pixelsDisplay aspect ratio : 2.35:1Frame rate mode : ConstantFrame rate : 25.000 FPSColor space : YUVChroma subsampling : 4:2:0Bit depth : 8 bitsScan type : ProgressiveBits/(Pixel*Frame) : 0.214Stream size : 5.78 GiB (93%)Title : Vanilla.and.Chocolate.2004.1080p.AMZN.WEB-DL.H.264-НечипорукLanguage : ItalianDefault : YesForced : NoColor range : LimitedColor primaries : BT.709Transfer characteristics : BT.709Matrix coefficients : BT.709
Audio #1ID : 2Format : AC-3Format/Info : Audio Coding 3Commercial name : Dolby DigitalCodec ID : A_AC3Duration : 1 h 38 minBit rate mode : ConstantBit rate : 224 kb/sChannel(s) : 2 channelsChannel layout : L RSampling rate : 48.0 kHzFrame rate : 31.250 FPS (1536 SPF)Compression mode : LossyStream size : 158 MiB (2%)Title : DVOLanguage : RussianService kind : Complete MainDefault : YesForced : No
Audio #2ID : 3Format : AC-3Format/Info : Audio Coding 3Commercial name : Dolby DigitalCodec ID : A_AC3Duration : 1 h 38 minBit rate mode : ConstantBit rate : 192 kb/sChannel(s) : 2 channelsChannel layout : L RSampling rate : 48.0 kHzFrame rate : 31.250 FPS (1536 SPF)Compression mode : LossyStream size : 136 MiB (2%)Title : Original DVDLanguage : ItalianService kind : Complete MainDefault : NoForced : No
Audio #3ID : 4Format : E-AC-3Format/Info : Enhanced AC-3Commercial name : Dolby Digital PlusCodec ID : A_EAC3Duration : 1 h 38 minBit rate mode : ConstantBit rate : 224 kb/sChannel(s) : 2 channelsChannel layout : L RSampling rate : 48.0 kHzFrame rate : 31.250 FPS (1536 SPF)Compression mode : LossyStream size : 158 MiB (2%)Title : Original AmazonLanguage : ItalianService kind : Complete MainDefault : NoForced : No
TextID : 5Format : UTF-8Codec ID : S_TEXT/UTF8Codec ID/Info : UTF-8 Plain TextDuration : 1 h 36 minBit rate : 40 b/sFrame rate : 0.148 FPSCount of elements : 856Stream size : 28.7 KiB (0%)Title : FullLanguage : EnglishDefault : NoForced : No
[Profile]  [PM] 
Display posts:    
Reply to topic

Current time is: 20-Jul 02:08

All times are UTC + 2



You cannot post new topics in this forum
You cannot reply to topics in this forum
You cannot edit your posts in this forum
You cannot delete your posts in this forum
You cannot vote in polls in this forum
You cannot attach files in this forum
You cannot download files in this forum