Вечеринка в женской общаге / Rock and Roll Fantasy (Дэвид Майкл Лэтт / David Michael Latt) [1992, США, мелодрама, комедия, WEB-DLRip-AVC] AVO (Сергей Визгунов) + Sub Eng + Original Eng

Reply to topic
 
Author
Message

Satyr ®

Gender: Unknown

Longevity: 15 years

Posts: 22045

Reputation: 56 [+] [-]

Satyr · Post 14-Jun-2023 01:55

[Quote] 

Вечеринка в женской общаге / Rock and Roll Fantasy
Страна: США
Жанр: мелодрама, комедия
Год выпуска: 1992
Продолжительность: 01:27:22
Перевод: Авторский (одноголосый закадровый) Сергей Визгунов
Субтитры: английские
Оригинальная аудиодорожка: английский
Режиссер: Дэвид Майкл Лэтт / David Michael Latt
В ролях: Аттила
Эйприл Лерман
Ким Литтл
Mark Stulce
Алан Чароф
Майкл Ксавьер
Авалон Андерс
Джо Мунди
Рэйчел Лэтт
Описание: Что может произойти, когда суперпопулярная рок-звезда Америки оказывается в заложниках, да еще и у самых сексуальных девчонок из женской общаги? Они устраиваютшикарную рок-вечеринку, на которую всем безумно хочется попасть, и которую пропустит только ленивый!
Доп. информация: Дорожку с Визгуновым синхронизировал ale_x2008
За оцифрованную с VHS дорожку благодарим - manhunt clon

Релиз
Сэмпл: https://www.sendspace.com/file/ns5p30
Качество видео: WEB-DLRip-AVC
Формат видео: MKV
Видео: MPEG4 Video (H264) 928x688 23.976fps Bit rate 3 337 kb/s
Аудио: Dolby AC3 48000Hz 2 ch (mono) 192kbps
Аудио 2: AAC 48000Hz 2 ch 93.4 kb/s
Формат субтитров: softsub (SRT)

MediaInfo

Вечеринка в женской общаге (Rock and Roll Fantasy) WEB-DLRip-AVC [by ale_x2008].mkvFormat                      : MatroskaFormat version              : Version 4File size                   : 2.21 GiBDuration                    : 1 h 27 minOverall bit rate            : 3 625 kb/sFrame rate                  : 23.976 FPSEncoded date                : 2023-06-13 19:19:26 UTCWriting application         : mkvmerge v71.0.0 ('Altitude') 64-bitWriting library             : libebml v1.4.4 + libmatroska v1.7.1
VideoID : 1Format : AVCFormat/Info : Advanced Video CodecFormat profile : High@L4.1Format settings : CABAC / 16 Ref FramesFormat settings, CABAC : YesFormat settings, Reference : 16 framesCodec ID : V_MPEG4/ISO/AVCDuration : 1 h 27 minBit rate : 3 337 kb/sWidth : 928 pixelsHeight : 688 pixelsDisplay aspect ratio : 4:3Frame rate mode : ConstantFrame rate : 23.976 (24000/1001) FPSOriginal frame rate : 23.976 (23976/1000) FPSColor space : YUVChroma subsampling : 4:2:0Bit depth : 8 bitsScan type : ProgressiveBits/(Pixel*Frame) : 0.218Stream size : 2.04 GiB (92%)Writing library : x264 core 148 r2638 7599210Encoding settings : cabac=1 / ref=16 / deblock=1:-3:-3 / analyse=0x3:0x133 / me=umh / subme=9 / psy=1 / psy_rd=1.00:0.00 / mixed_ref=1 / me_range=32 / chroma_me=1 / trellis=2 / 8x8dct=1 / cqm=0 / deadzone=21,11 / fast_pskip=1 / chroma_qp_offset=-2 / threads=18 / lookahead_threads=4 / sliced_threads=0 / nr=0 / decimate=1 / interlaced=0 / bluray_compat=0 / constrained_intra=0 / bframes=10 / b_pyramid=0 / b_adapt=2 / b_bias=0 / direct=3 / weightb=1 / open_gop=0 / weightp=2 / keyint=250 / keyint_min=23 / scenecut=40 / intra_refresh=0 / rc=crf / mbtree=0 / crf=20.0 / qcomp=0.60 / qpmin=0 / qpmax=69 / qpstep=4 / ip_ratio=1.40 / pb_ratio=1.30 / aq=1:1.00Default : YesForced : No
Audio #1ID : 2Format : AC-3Format/Info : Audio Coding 3Commercial name : Dolby DigitalCodec ID : A_AC3Duration : 1 h 27 minBit rate mode : ConstantBit rate : 192 kb/sChannel(s) : 2 channelsChannel layout : L RSampling rate : 48.0 kHzFrame rate : 31.250 FPS (1536 SPF)Compression mode : LossyStream size : 120 MiB (5%)Language : RussianService kind : Complete MainDefault : YesForced : No
Audio #2ID : 3Format : AAC LCFormat/Info : Advanced Audio Codec Low ComplexityCodec ID : A_AAC-2Duration : 1 h 27 minBit rate : 93.4 kb/sChannel(s) : 2 channelsChannel layout : L RSampling rate : 48.0 kHzFrame rate : 46.875 FPS (1024 SPF)Compression mode : LossyStream size : 58.3 MiB (3%)Language : EnglishDefault : NoForced : No
TextID : 4Format : UTF-8Codec ID : S_TEXT/UTF8Codec ID/Info : UTF-8 Plain TextDuration : 1 h 22 minBit rate : 215 b/sFrame rate : 0.366 FPSCount of elements : 1820Stream size : 131 KiB (0%)Language : EnglishDefault : NoForced : No

Скриншоты


[Profile]  [PM] 
Display posts:    
Reply to topic

Current time is: 25-Jul 05:19

All times are UTC + 2



You cannot post new topics in this forum
You cannot reply to topics in this forum
You cannot edit your posts in this forum
You cannot delete your posts in this forum
You cannot vote in polls in this forum
You cannot attach files in this forum
You cannot download files in this forum