Жестокая игра / Возмутительная игра / The Crying Game (Нил Джордан / Neil Jordan) [1992, Великобритания, Ирландия, драма, BDRip] AVO (Живов) + Original Eng

Reply to topic
 
Author
Message

Satyr ®

Gender: Unknown

Longevity: 15 years

Posts: 22031

Reputation: 56 [+] [-]

Satyr · Post 14-Jun-2023 01:55

[Quote] 

Жестокая игра / Возмутительная игра / The Crying Game
Страна: Великобритания, Ирландия
Жанр: драма
Год выпуска: 1992
Продолжительность: 01:51:38
Перевод: Авторский (одноголосый закадровый) Живов
Субтитры: нет
Оригинальная аудиодорожка: английский
Режиссер: Нил Джордан / Neil Jordan
В ролях: Форест Уитакер, Миранда Ричардсон, Стивен Ри, Эдриан Данбар, Бреффни МакКенна, Джо Савино, Бёрди Суини, Джей Дэвидсон, Андре Бернард, Джим Броудбент
Описание: Британский солдат Джоди, попавший в плен к боевикам Ирландской республиканской армии, подружился с одним из своих тюремщиков Фергюсом. Получив приказ расстрелять пленника, Фергюс был вынужден подчиниться.
Больше он не хочет никого убивать и, покинув бывших товарищей по оружию, уезжает в Лондон. Фергюс должен выполнить последнюю волю Джоди и разыскать его любимую девушку Дил, которую видел на фотографии. Днем эта неотразимо притягательная девушка работает парикмахером, а по вечерам поет в баре. С первой же встречи Фергюс и Дил полюбили друг друга.
Доп. информация: Исходный БДремукс https://torrentsland.com.ua/forum/viewtopic.php?t=6375138.
Благодарю KinoTe4niK за предоставленный чистый голос Живова. Дорожка получена микшированием чистого голоса с центральным каналом оригинальной дороги.
Английская аудиодорожка из ДВД https://torrentsland.com.ua/forum/viewtopic.php?t=3083153.
Сэмпл: https://disk.yandex.ru/i/9PcQdh6YnYtDgA
Качество видео: BDRip
Формат видео: AVI
Видео: XviD, 720x304 (2.35:1), 24 fps, ~1850 kbps
Аудио 1: AC3, 5.1 ch., 448 kbps, 48 kHz - AVO Юрий Живов
Аудио 2: AC3, 5.1 ch., 448 kbps, 48 kHz - english

MediaInfo

ОбщееПолное имя                               : D:\Torrents\Crying Game [1992 BDRip].aviФормат                                   : AVIФормат/Информация                        : Audio Video InterleaveПрофиль формата                          : OpenDMLРазмер файла                             : 2,16 ГбайтПродолжительность                        : 1 ч. 51 м.Общий поток                              : 2 764 Кбит/секПрограмма кодирования                    : VirtualDubMod 1.5.10.2 (build 2540/release)Библиотека кодирования                   : VirtualDubMod build 2540/release
ВидеоИдентификатор : 0Формат : MPEG-4 VisualПрофиль формата : Advanced Simple@L5Настройки формата : BVOP1Параметр BVOP формата : 1Параметр QPel формата : НетПараметр GMC формата : Без точки переходаПараметр матрицы формата : Default (H.263)Идентификатор кодека : XVIDИдентификатор кодека/Подсказка : XviDПродолжительность : 1 ч. 51 м.Битрейт : 1 850 Кбит/секШирина : 720 пикселейВысота : 304 пикселяСоотношение сторон : 2,35:1Частота кадров : 24,000 кадра/секЦветовое пространство : YUVСубдискретизация насыщенности : 4:2:0Битовая глубина : 8 битТип развёртки : ПрогрессивнаяМетод сжатия : С потерямиБит/(Пиксели*Кадры) : 0.352Размер потока : 1,44 Гбайт (67%)Библиотека кодирования : XviD 67
Аудио #1Идентификатор : 1Формат : AC-3Формат/Информация : Audio Coding 3Коммерческое название : Dolby DigitalИдентификатор кодека : 2000Продолжительность : 1 ч. 51 м.Вид битрейта : ПостоянныйБитрейт : 448 Кбит/секКаналы : 6 каналовChannel layout : L R C LFE Ls RsЧастота : 48,0 КГцЧастота кадров : 31,250 кадров/сек (1536 SPF)Метод сжатия : С потерямиРазмер потока : 358 Мбайт (16%)Выравнивание : Разделение по промежуткамПродолжительность промежутка : 42 мс. (1,00 видеокадр)Время предзагрузки промежутка : 500 мс.Service kind : Complete Main
Аудио #2Идентификатор : 2Формат : AC-3Формат/Информация : Audio Coding 3Коммерческое название : Dolby DigitalИдентификатор кодека : 2000Продолжительность : 1 ч. 51 м.Вид битрейта : ПостоянныйБитрейт : 448 Кбит/секКаналы : 6 каналовChannel layout : L R C LFE Ls RsЧастота : 48,0 КГцЧастота кадров : 31,250 кадров/сек (1536 SPF)Метод сжатия : С потерямиРазмер потока : 358 Мбайт (16%)Выравнивание : Разделение по промежуткамПродолжительность промежутка : 42 мс. (1,00 видеокадр)Время предзагрузки промежутка : 500 мс.Service kind : Complete Main

Скриншот c названием фильма

Скриншоты

[Profile]  [PM] 
Display posts:    
Reply to topic

Current time is: 20-Jul 02:06

All times are UTC + 2



You cannot post new topics in this forum
You cannot reply to topics in this forum
You cannot edit your posts in this forum
You cannot delete your posts in this forum
You cannot vote in polls in this forum
You cannot attach files in this forum
You cannot download files in this forum