База / The Base (Марк Л. Лестер / Mark L. Lester) [1999, США, боевик, драма, DVDRip-AVC] MVO (РТР) + DVO (НТВ)

Reply to topic
 
Author
Message

Satyr ®

Online

Gender: Unknown

Longevity: 15 years

Posts: 22035

Reputation: 56 [+] [-]

Satyr · Post 14-Jun-2023 01:55

[Quote] 

База / The Base
Год выпуска: 1999
Страна: США
Жанр: боевик, драма
Продолжительность: 01:33:30
Перевод: Профессиональный (многоголосый закадровый) - РТР
Перевод 2: Профессиональный (двухголосый закадровый) - НТВ
Субтитры: нет
Режиссер: Марк Л. Лестер / Mark L. Lester
В ролях: Марк Дакаскос (Maj. John Murphy / Cpl. John Dalton), Тим Эбелл (Sgt. Gammon), Пола Трики (Lt. Kelly Andrews), Ной Блейк (Cpl. Castellano), Дуэйн Макопсон (Cpl. Knox), Кристиан Бочер (Cpl. Henderson), Мэдисон Мэйсон (Gen. Leo Oxenberg), Фредерик Коффин (Gen. Albert Becker), Марко Родригес (Rosato), Джо Рентерма (Ray)-Мировая премьера: 25 марта 1999-Описание: Офицеру разведки Джону Мерфи поручена важная миссия: выяснить, почему передача американцам мексиканского наркобарона обернулась кровавой бойней. Для этого его засылают на пограничную военную базу, где он должен внедриться в команду спецназовцев, предположительно, торгующих оружием и наркотиками. Пройдя суровые испытания на выносливость и силу, завоевав доверие у верхушки военного руководства, Джон вынужден самостоятельно разоблачить банду.-Доп. информация:
За исходник видео большое спасибо big1987.
За запись перевода с телеканала РТР через видеомагнитофон и оцифровку с видеокассеты большое спасибо RABOTNIC.
За запись перевода НТВ с телеканала ТВ-3 через видеомагнитофон и оцифровку с видеокассеты большое спасибо RABOTNIC.
Cинхрон перевода - JUSTKANT.-
Рейтинг

MPAA: R - Лицам до 17-ти лет обязательно присутствие взрослого.-Качество видео: DVDRip-AVC
Формат видео: MKV -> //SAMPLE//
Видео: XviD, 700x572 @ 747x572 (4:3), 25.000 fps, 1837 kbps avg
Аудио:
1 - 48 khz, AC3 Dolby Digital, 2/0 (L,R) ch, ~192 kbps [РТР] VHSRip-ТВ
2 - 48 khz, AC3 Dolby Digital, 2/0 (L,R) ch, ~192 kbps [НТВ / ТВ-3] VHSRip-ТВ-ОБНОВЛЕНИЕ РАЗДАЧИ 06.06.2023
Заменён видеоряд
Добавлен в раздачу перевод РТР
Перевод НТВ (он же ТВ-3) был переделан под новый видеоряд

Просьба пере-скачать торрент заново.

MediaInfo

General
Unique ID : 20416814021144132685532983848267761856 (0xF5C22A63F473F6FEA02A9BB3C1948C0)
Complete name : C:\Users\JUSTKANT\Videos\Специально для релизов\Готовые фильмы\База (1999) [DVDRip-AVC] (РТР) (НТВ).mkv
Format : Matroska
Format version : Version 4
File size : 1.45 GiB
Duration : 1 h 33 min
Overall bit rate : 2 223 kb/s
Frame rate : 25.000 FPS
Movie name : База [1999, DVDRip/AVC] || big1987
Encoded date : 2023-06-05 20:20:35 UTC
Writing application : mkvmerge v75.0.0 ('Goliath') 64-bit
Writing library : libebml v1.4.4 + libmatroska v1.7.1
Video
ID : 1
Format : AVC
Format/Info : Advanced Video Codec
Format profile : High@L3.1
Format settings : CABAC / 9 Ref Frames
Format settings, CABAC : Yes
Format settings, Reference : 9 frames
Codec ID : V_MPEG4/ISO/AVC
Duration : 1 h 33 min
Bit rate : 1 837 kb/s
Width : 700 pixels
Height : 572 pixels
Display aspect ratio : 4:3
Original display aspect rat : 4:3
Frame rate mode : Constant
Frame rate : 25.000 FPS
Color space : YUV
Chroma subsampling : 4:2:0
Bit depth : 8 bits
Scan type : Progressive
Bits/(Pixel*Frame) : 0.184
Stream size : 1.20 GiB (83%)
Title : База [1999, DVDRip/AVC] || big1987
Writing library : x264 core 122 r2184 5c85e0a
Encoding settings : cabac=1 / ref=9 / deblock=1:-3:-3 / analyse=0x3:0x133 / me=umh / subme=9 / psy=1 / psy_rd=1.00:0.20 / mixed_ref=1 / me_range=48 / chroma_me=1 / trellis=2 / 8x8dct=1 / cqm=0 / deadzone=21,11 / fast_pskip=0 / chroma_qp_offset=-3 / threads=6 / sliced_threads=0 / nr=0 / decimate=0 / interlaced=0 / bluray_compat=0 / constrained_intra=0 / bframes=9 / b_pyramid=2 / b_adapt=2 / b_bias=0 / direct=3 / weightb=1 / open_gop=0 / weightp=2 / keyint=250 / keyint_min=25 / scenecut=40 / intra_refresh=0 / rc_lookahead=60 / rc=2pass / mbtree=1 / bitrate=1837 / ratetol=1.0 / qcomp=0.60 / qpmin=0 / qpmax=69 / qpstep=4 / cplxblur=20.0 / qblur=0.5 / ip_ratio=1.40 / aq=1:1.00
Language : English
Default : Yes
Forced : No
Audio #1
ID : 2
Format : AC-3
Format/Info : Audio Coding 3
Commercial name : Dolby Digital
Codec ID : A_AC3
Duration : 1 h 33 min
Bit rate mode : Constant
Bit rate : 192 kb/s
Channel(s) : 2 channels
Channel layout : L R
Sampling rate : 48.0 kHz
Frame rate : 31.250 FPS (1536 SPF)
Compression mode : Lossy
Stream size : 128 MiB (9%)
Title : MVO (РТР): Александр Клюквин, Андрей Бархударов, Виктор Петров и Ольга Зубкова
Language : Russian
Service kind : Complete Main
Default : Yes
Forced : No
Audio #2
ID : 3
Format : AC-3
Format/Info : Audio Coding 3
Commercial name : Dolby Digital
Codec ID : A_AC3
Duration : 1 h 33 min
Bit rate mode : Constant
Bit rate : 192 kb/s
Channel(s) : 2 channels
Channel layout : L R
Sampling rate : 48.0 kHz
Frame rate : 31.250 FPS (1536 SPF)
Compression mode : Lossy
Stream size : 128 MiB (9%)
Title : DVO (НТВ): Владимир Вихров и Наталья Казначеева
Language : Russian
Service kind : Complete Main
Default : No
Forced : No

Скриншоты

[Profile]  [PM] 
Display posts:    
Reply to topic

Current time is: 21-Jul 21:38

All times are UTC + 2



You cannot post new topics in this forum
You cannot reply to topics in this forum
You cannot edit your posts in this forum
You cannot delete your posts in this forum
You cannot vote in polls in this forum
You cannot attach files in this forum
You cannot download files in this forum