Слежка / Засада / Stakeout (Джон Бэдэм / John Badham) [1987, США, комедия, криминал, WEBRip-AVC] AVO (Александр Готлиб) + (Максим Ошурков) + VO

Reply to topic
 
Author
Message

Satyr ®

Gender: Unknown

Longevity: 15 years

Posts: 22045

Reputation: 56 [+] [-]

Satyr · Post 14-Jun-2023 01:55

[Quote] 

Слежка / Засада / Stakeout
«It's a tough job but somebody's got to do it!»
Страна: США
Жанр: комедия, криминал
Год выпуска: 1987
Продолжительность: 01:57:18
Перевод: Авторский (одноголосый закадровый) Александр Готлиб
Перевод 2: Авторский (одноголосый закадровый) Максим Ошурков
Перевод: Одноголосый закадровый
Субтитры: нет
Оригинальная аудиодорожка: нет
Режиссер: Джон Бэдэм / John Badham
В ролях: Ричард Дрейфусс, Эмилио Эстевес, Мэделин Стоу, Эйдан Куинн, Дэн Лория, Форест Уитакер, Иэн Трейси, Эрл Биллингс, Джексон Дэвис, Дж.Дж. Макаро
Описание: Полицейские Крис и Билл получают новое и, как всегда, ответственное задание. Им поручено вести наблюдение за бывшей подругой сбежавшего преступника. Сыщики уверены, что опасный злодей обязательно навестит даму своего сердца. Но вместо того, чтобы следить за красавицей, Крис начал заглядываться на нее.
Суровый служитель закона понял, что влюбился. Забыв о предосторожности, Крис решает рассказать девушке о своих чувствах как раз в тот момент, когда на горизонте появился долгожданный подозреваемый…
Доп. информация:
Дорожку с VO синхронизировал ale_x2008
За оцифрованную с VHS дорожку благодарим - Raptorio Rio

Релиз
Сэмпл: https://www.sendspace.com/file/u8x4jr
Качество видео: WEB-Rip-AVC
Формат видео: MKV
Видео: MPEG4 Video (H264) 976x528 23.976fps Bit rate 2 905 kb/s
Аудио: AC3 Dolby Digital, 48000Hz 2/0 (L,R) ch (mono), 192.00 kbps avg
Аудио 2: AC3 Dolby Digital, 48000Hz 2/0 (L,R) ch (mono), 192.00 kbps avg
Аудио 3: AC3 Dolby Digital, 48000Hz 2/0 (L,R) ch (mono), 192.00 kbps avg

MediaInfo

Слежка (Stakeout) WEBRip-AVC [by ale_x2008].mkv
Format : Matroska
Format version : Version 4
File size : 2.85 GiB
Duration : 1 h 57 min
Overall bit rate : 3 483 kb/s
Frame rate : 23.976 FPS
Encoded date : 2023-06-09 18:41:44 UTC
Writing application : mkvmerge v71.0.0 ('Altitude') 64-bit
Writing library : libebml v1.4.4 + libmatroska v1.7.1
Video
ID : 1
Format : AVC
Format/Info : Advanced Video Codec
Format profile : High@L4.1
Format settings : CABAC / 16 Ref Frames
Format settings, CABAC : Yes
Format settings, Reference : 16 frames
Codec ID : V_MPEG4/ISO/AVC
Duration : 1 h 57 min
Bit rate : 2 905 kb/s
Width : 976 pixels
Height : 528 pixels
Display aspect ratio : 1.85:1
Frame rate mode : Constant
Frame rate : 23.976 (24000/1001) FPS
Color space : YUV
Chroma subsampling : 4:2:0
Bit depth : 8 bits
Scan type : Progressive
Bits/(Pixel*Frame) : 0.235
Stream size : 2.38 GiB (83%)
Writing library : x264 core 148 r2638 7599210
Encoding settings : cabac=1 / ref=16 / deblock=1:-3:-3 / analyse=0x3:0x133 / me=umh / subme=9 / psy=1 / psy_rd=1.00:0.00 / mixed_ref=1 / me_range=32 / chroma_me=1 / trellis=2 / 8x8dct=1 / cqm=0 / deadzone=21,11 / fast_pskip=1 / chroma_qp_offset=-2 / threads=16 / lookahead_threads=4 / sliced_threads=0 / nr=0 / decimate=1 / interlaced=0 / bluray_compat=0 / constrained_intra=0 / bframes=10 / b_pyramid=0 / b_adapt=2 / b_bias=0 / direct=3 / weightb=1 / open_gop=0 / weightp=2 / keyint=250 / keyint_min=23 / scenecut=40 / intra_refresh=0 / rc=crf / mbtree=0 / crf=20.0 / qcomp=0.60 / qpmin=0 / qpmax=69 / qpstep=4 / ip_ratio=1.40 / pb_ratio=1.30 / aq=1:1.00
Default : Yes
Forced : No
Audio #1
ID : 2
Format : AC-3
Format/Info : Audio Coding 3
Commercial name : Dolby Digital
Codec ID : A_AC3
Duration : 1 h 57 min
Bit rate mode : Constant
Bit rate : 192 kb/s
Channel(s) : 2 channels
Channel layout : L R
Sampling rate : 48.0 kHz
Frame rate : 31.250 FPS (1536 SPF)
Compression mode : Lossy
Stream size : 161 MiB (6%)
Title : Готлиб
Language : Russian
Service kind : Complete Main
Default : Yes
Forced : No
Audio #2
ID : 3
Format : AC-3
Format/Info : Audio Coding 3
Commercial name : Dolby Digital
Codec ID : A_AC3
Duration : 1 h 57 min
Bit rate mode : Constant
Bit rate : 192 kb/s
Channel(s) : 2 channels
Channel layout : L R
Sampling rate : 48.0 kHz
Frame rate : 31.250 FPS (1536 SPF)
Compression mode : Lossy
Stream size : 161 MiB (6%)
Title : Ошурков
Language : Russian
Service kind : Complete Main
Default : No
Forced : No
Audio #3
ID : 4
Format : AC-3
Format/Info : Audio Coding 3
Commercial name : Dolby Digital
Codec ID : A_AC3
Duration : 1 h 57 min
Bit rate mode : Constant
Bit rate : 192 kb/s
Channel(s) : 2 channels
Channel layout : L R
Sampling rate : 48.0 kHz
Frame rate : 31.250 FPS (1536 SPF)
Compression mode : Lossy
Stream size : 161 MiB (6%)
Title : VO
Language : Russian
Service kind : Complete Main
Default : No
Forced : No

Скриншоты


[Profile]  [PM] 
Display posts:    
Reply to topic

Current time is: 25-Jul 05:45

All times are UTC + 2



You cannot post new topics in this forum
You cannot reply to topics in this forum
You cannot edit your posts in this forum
You cannot delete your posts in this forum
You cannot vote in polls in this forum
You cannot attach files in this forum
You cannot download files in this forum