Обвиняемые / The Accused (Джонатан Каплан / Jonathan Kaplan) [1988, США, Канада, драма, триллер, BDRemux 1080p] MVO (НТВ+) + 2х DVO (R5, СТС) + 2х AVO (Гаврилов, Визгунов) + Sub Eng + Original Eng

Reply to topic
 
Author
Message

Faust ®

Gender: Unknown

Longevity: 12 years

Posts: 23202

Reputation: 0 [+] [-]

Faust · Post 14-Jun-2023 06:05

[Quote] 

Обвиняемые / The Accused---USA Transfer | Paramount Pictures--- Страна: США, Канада
Студия: Paramount Pictures, Jaffe-Lansing
Жанр: драма, триллер
Год выпуска: 1988
Продолжительность: 01:50:31
Перевод: Профессиональный (многоголосый закадровый) - НТВ+
Перевод: Профессиональный (двухголосый закадровый) - R5
Перевод: Профессиональный (двухголосый закадровый) - СТС
Перевод: Авторский (одноголосый закадровый) - Андрей Гаврилов
Перевод: Авторский (одноголосый закадровый) - Сергей Визгунов
Субтитры: английские (полные, для слабослышащих), немецкие, французские, испанские (европейские, латиноамериканские), итальянские, португальские (европейские, бразильские), арабские, болгарские, боснийские, венгерские, голландские, греческие, датские, иврит, индонезийские, исландские, китайские, корейские, норвежские, польские, румынские, сербские, словенские, тайские, турецкие, фарси, финские, хорватские, чешские, шведские, японские
Оригинальная аудиодорожка: английский

Режиссер: Джонатан Каплан / Jonathan Kaplan
В ролях: Келли Макгиллис, Джоди Фостер, Берни Колсон, Лео Росси, Энн Хирн, Кармен Ардженциано, Стив Энтин, Том О`Брайен, Питер Ван Норден, Терри Дэвид Маллиган, Вуди Браун, Скотт Полин, Ким Кондрашофф, Стивен Е. Миллер, Том Хитон, Эндрю Кавадас, Том МакБет, Роуз Уивер, Линда Дарлоу, Вина Суд, Аллан Лайселл, Энтони Холланд, Кевин МакНалти, Джерри Вассерман, Барни О’Салливан, Кристианна Херт
Описание: Героиня этого фильма, Сара Тобиас, рассказывает свою ужасную историю прокурору Кэтрин Мерфи. Сара была безжалостно изнасилована тремя мужчинами в баре. Однако преступников приговаривают лишь к небольшому сроку за хулиганство. Такое решение суда было основано на заключении следствия, в котором утверждалось, что Сара сама спровоцировала обвиняемых на насилие. По просьбе девушки, Мерфи начинает заново расследовать обстоятельства этого странного дела. Теперь прокурору предстоит выяснить: что же в действительности произошло тем страшным вечером в баре?--
Исходник - he.Accused.1988.1080p.BluRay.REMUX.AVC.TrueHD.5.1-CONSORTiUM.mkv. Русск5ие дороги с кинозала. Полностью пересобраны и переработаны. Устранены все косяки, исправлен рассинхрон в дорожке СТС. Работа со звуком на моей совести. Обложка соответствует изданию.
--Сэмпл | Кинопоиск | IMDb
Тип релиза: BDRemux 1080p
Контейнер: MKV
Видео: 1920x1080 (16:9), 23.976 fps, 37175 kbps, AVC
Аудио 1: Russian, 48.0 KHz, AC3, 2 ch, 224 Kbps - DVO НТВ+
Аудио 2: Russian, 48.0 KHz, AC3, 2 ch, 192 Kbps - DVO R5
Аудио 3: Russian, 48.0 KHz, AC3, 2 ch, 192 Kbps - MVO Фильм Экспорт по заказу СТС
Аудио 4: Russian, 48.0 KHz, AC3, 2 ch, 192 Kbps - AVO Андрей Гаврилов
Аудио 5: Russian, 48.0 KHz, AC3, 2 ch, 192 Kbps - AVO Сергей Визгунов
Аудио 6: English, 48.0 KHz, TrueHD, 6 ch, 3226 kbps - Original True HD
Аудио 7: English, 48.0 KHz, AC3, 6 ch, 640 Kbps - Original Compatibility Track
Аудио 8: English, 48.0 KHz, AC3, 2 ch, 192 Kbps - Original Analog SVA Mix
Формат субтитров: softsub (SRT)

MediaInfo

ОбщееУникальный идентификатор                 : 198731988901639762758243827941637103075 (0x9582638A94C3E062BEF582A148F01DE3)Полное имя                               : U:\Vremyanka\The.Accused.1988.Paramount.Pictures.BDRemux.1080p.mkvФормат                                   : MatroskaВерсия формата                           : Version 4Размер файла                             : 32,6 ГбайтПродолжительность                        : 1 ч. 50 м.Режим общего битрейта                    : ПеременныйОбщий поток                              : 42,2 Мбит/секНазвание фильма                          : The.Accused.1988.Paramount.Pictures.BDRemux.1080p_AllFilms_tekoДата кодирования                         : UTC 2023-06-01 15:26:18Программа кодирования                    : mkvmerge v9.5.0 ('Quiet Fire') 64bitБиблиотека кодирования                   : libebml v1.3.4 + libmatroska v1.4.5Обложка                                  : YesAttachments                              : The.Accused.1988.PP.BD.Front.Cover.png / The.Accused.1988.BD.Cover.png / The.Accused.1988.BD.Print.png / The.Accused.1988.DVD.Cover.jpg / The.Accused.1988.DVD.Print.png / The.Accused.1988.Poster.jpg / The.Accused.1988.Afisha.jpg
ВидеоИдентификатор : 1Формат : AVCФормат/Информация : Advanced Video CodecПрофиль формата : High@L4.1Настройки формата : CABAC / 4 Ref FramesПараметр CABAC формата : ДаПараметр RefFrames формата : 4 кадраПараметр GOP формата : M=3, N=12Идентификатор кодека : V_MPEG4/ISO/AVCПродолжительность : 1 ч. 50 м.Вид битрейта : ПеременныйБитрейт : 37,0 Мбит/секМаксимальный битрейт : 38,0 Мбит/секШирина : 1920 пикселейВысота : 1080 пикселейСоотношение сторон : 16:9Режим частоты кадров : ПостоянныйЧастота кадров : 23,976 (24000/1001) кадра/секЦветовое пространство : YUVСубдискретизация насыщенности : 4:2:0Битовая глубина : 8 битТип развёртки : ПрогрессивнаяБит/(Пиксели*Кадры) : 0.744Размер потока : 28,6 Гбайт (88%)Заголовок : The.Accused.1988.Paramount.Pictures.BDRemux.1080pЯзык : EnglishDefault : ДаForced : Нет
Аудио #1Идентификатор : 2Формат : AC-3Формат/Информация : Audio Coding 3Коммерческое название : Dolby DigitalИдентификатор кодека : A_AC3Продолжительность : 1 ч. 50 м.Вид битрейта : ПостоянныйБитрейт : 224 Кбит/секКаналы : 2 каналаChannelLayout : L RЧастота : 48,0 КГцЧастота кадров : 31,250 кадров/сек (1536 SPF)Метод сжатия : С потерямиРазмер потока : 177 Мбайт (1%)Заголовок : DVO НТВ+ (Елена Борзунова и Александр Гаврилин)Язык : RussianServiceKind/String : Complete MainDefault : ДаForced : Нет
Аудио #2Идентификатор : 3Формат : AC-3Формат/Информация : Audio Coding 3Коммерческое название : Dolby DigitalИдентификатор кодека : A_AC3Продолжительность : 1 ч. 50 м.Вид битрейта : ПостоянныйБитрейт : 192 Кбит/секКаналы : 2 каналаChannelLayout : L RЧастота : 48,0 КГцЧастота кадров : 31,250 кадров/сек (1536 SPF)Метод сжатия : С потерямиРазмер потока : 152 Мбайт (0%)Заголовок : DVO R5Язык : RussianServiceKind/String : Complete MainDefault : НетForced : Нет
Аудио #3Идентификатор : 4Формат : AC-3Формат/Информация : Audio Coding 3Коммерческое название : Dolby DigitalИдентификатор кодека : A_AC3Продолжительность : 1 ч. 50 м.Вид битрейта : ПостоянныйБитрейт : 192 Кбит/секКаналы : 2 каналаChannelLayout : L RЧастота : 48,0 КГцЧастота кадров : 31,250 кадров/сек (1536 SPF)Метод сжатия : С потерямиРазмер потока : 152 Мбайт (0%)Заголовок : MVO Фильм Экспорт по заказу СТСЯзык : RussianServiceKind/String : Complete MainDefault : НетForced : Нет
Аудио #4Идентификатор : 5Формат : AC-3Формат/Информация : Audio Coding 3Коммерческое название : Dolby DigitalИдентификатор кодека : A_AC3Продолжительность : 1 ч. 50 м.Вид битрейта : ПостоянныйБитрейт : 192 Кбит/секКаналы : 2 каналаChannelLayout : L RЧастота : 48,0 КГцЧастота кадров : 31,250 кадров/сек (1536 SPF)Метод сжатия : С потерямиРазмер потока : 152 Мбайт (0%)Заголовок : AVO Андрей ГавриловЯзык : RussianServiceKind/String : Complete MainDefault : НетForced : Нет
Аудио #5Идентификатор : 6Формат : AC-3Формат/Информация : Audio Coding 3Коммерческое название : Dolby DigitalИдентификатор кодека : A_AC3Продолжительность : 1 ч. 50 м.Вид битрейта : ПостоянныйБитрейт : 192 Кбит/секКаналы : 2 каналаChannelLayout : L RЧастота : 48,0 КГцЧастота кадров : 31,250 кадров/сек (1536 SPF)Метод сжатия : С потерямиРазмер потока : 152 Мбайт (0%)Заголовок : AVO Сергей ВизгуновЯзык : RussianServiceKind/String : Complete MainDefault : НетForced : Нет
Аудио #6Идентификатор : 7Формат : MLP FBAФормат/Информация : Meridian Lossless Packing FBAКоммерческое название : Dolby TrueHDИдентификатор кодека : A_TRUEHDПродолжительность : 1 ч. 50 м.Вид битрейта : ПеременныйБитрейт : 3226 Кбит/секМаксимальный битрейт : 4497 Кбит/секКаналы : 6 каналовChannelLayout : L R C LFE Ls RsЧастота : 48,0 КГцЧастота кадров : 1200,000 кадров/сек (40 SPF)Метод сжатия : Без потерьРазмер потока : 2,49 Гбайт (8%)Заголовок : Original True HDЯзык : EnglishDefault : НетForced : Нет
Аудио #7Идентификатор : 8Формат : AC-3Формат/Информация : Audio Coding 3Коммерческое название : Dolby DigitalИдентификатор кодека : A_AC3Продолжительность : 1 ч. 50 м.Вид битрейта : ПостоянныйБитрейт : 640 Кбит/секКаналы : 6 каналовChannelLayout : L R C LFE Ls RsЧастота : 48,0 КГцЧастота кадров : 31,250 кадров/сек (1536 SPF)Метод сжатия : С потерямиРазмер потока : 506 Мбайт (2%)Заголовок : Original Compatibility TrackЯзык : EnglishServiceKind/String : Complete MainDefault : НетForced : Нет
Аудио #8Идентификатор : 9Формат : AC-3Формат/Информация : Audio Coding 3Коммерческое название : Dolby DigitalИдентификатор кодека : A_AC3Продолжительность : 1 ч. 50 м.Вид битрейта : ПостоянныйБитрейт : 192 Кбит/секКаналы : 2 каналаChannelLayout : L RЧастота : 48,0 КГцЧастота кадров : 31,250 кадров/сек (1536 SPF)Метод сжатия : С потерямиРазмер потока : 152 Мбайт (0%)Заголовок : Original Analog SVA MixЯзык : EnglishServiceKind/String : Complete MainDefault : НетForced : Нет
Текст #1Идентификатор : 10Формат : UTF-8Идентификатор кодека : S_TEXT/UTF8Идентификатор кодека/Информация : UTF-8 Plain TextПродолжительность : 1 ч. 44 м.Битрейт : 67 бит/секElementCount : 1414Размер потока : 51,4 Кбайт (0%)Заголовок : English FullЯзык : EnglishDefault : НетForced : Нет
Текст #2Идентификатор : 11Формат : PGSИдентификатор кодека : S_HDMV/PGSИдентификатор кодека/Информация : Picture based subtitle format used on BDs/HD-DVDsПродолжительность : 1 ч. 44 м.Битрейт : 39,5 Кбит/секElementCount : 2396Размер потока : 29,5 Мбайт (0%)Заголовок : English FullЯзык : EnglishDefault : НетForced : Нет
Текст #3Идентификатор : 12Формат : UTF-8Идентификатор кодека : S_TEXT/UTF8Идентификатор кодека/Информация : UTF-8 Plain TextПродолжительность : 1 ч. 44 м.Битрейт : 71 бит/секElementCount : 1545Размер потока : 54,5 Кбайт (0%)Заголовок : English SDHЯзык : EnglishDefault : НетForced : Нет
Текст #4Идентификатор : 13Формат : PGSИдентификатор кодека : S_HDMV/PGSИдентификатор кодека/Информация : Picture based subtitle format used on BDs/HD-DVDsПродолжительность : 1 ч. 44 м.Битрейт : 50,2 Кбит/секElementCount : 3140Размер потока : 37,5 Мбайт (0%)Заголовок : English SDHЯзык : EnglishDefault : НетForced : Нет
Текст #5Идентификатор : 14Формат : UTF-8Идентификатор кодека : S_TEXT/UTF8Идентификатор кодека/Информация : UTF-8 Plain TextПродолжительность : 1 ч. 48 м.Битрейт : 54 бит/секElementCount : 1140Размер потока : 43,4 Кбайт (0%)Заголовок : GermanЯзык : GermanDefault : НетForced : Нет
Текст #6Идентификатор : 15Формат : UTF-8Идентификатор кодека : S_TEXT/UTF8Идентификатор кодека/Информация : UTF-8 Plain TextПродолжительность : 1 ч. 49 м.Битрейт : 44 бит/секElementCount : 1118Размер потока : 35,5 Кбайт (0%)Заголовок : FrenchЯзык : FrenchDefault : НетForced : Нет
Текст #7Идентификатор : 16Формат : UTF-8Идентификатор кодека : S_TEXT/UTF8Идентификатор кодека/Информация : UTF-8 Plain TextПродолжительность : 1 ч. 44 м.Битрейт : 54 бит/секElementCount : 1136Размер потока : 42,0 Кбайт (0%)Заголовок : Spanish CastillanЯзык : SpanishDefault : НетForced : Нет
Текст #8Идентификатор : 17Формат : UTF-8Идентификатор кодека : S_TEXT/UTF8Идентификатор кодека/Информация : UTF-8 Plain TextПродолжительность : 1 ч. 44 м.Битрейт : 55 бит/секElementCount : 1138Размер потока : 42,3 Кбайт (0%)Заголовок : Spanish Latin AmericaЯзык : SpanishDefault : НетForced : Нет
Текст #9Идентификатор : 18Формат : UTF-8Идентификатор кодека : S_TEXT/UTF8Идентификатор кодека/Информация : UTF-8 Plain TextПродолжительность : 1 ч. 44 м.Битрейт : 57 бит/секElementCount : 1131Размер потока : 43,9 Кбайт (0%)Заголовок : ItalianЯзык : ItalianDefault : НетForced : Нет
Текст #10Идентификатор : 19Формат : UTF-8Идентификатор кодека : S_TEXT/UTF8Идентификатор кодека/Информация : UTF-8 Plain TextПродолжительность : 1 ч. 49 м.Битрейт : 52 бит/секElementCount : 1138Размер потока : 42,3 Кбайт (0%)Заголовок : Portuguese IberianЯзык : PortugueseDefault : НетForced : Нет
Текст #11Идентификатор : 20Формат : UTF-8Идентификатор кодека : S_TEXT/UTF8Идентификатор кодека/Информация : UTF-8 Plain TextПродолжительность : 1 ч. 46 м.Битрейт : 51 бит/секElementCount : 1137Размер потока : 40,6 Кбайт (0%)Заголовок : Portuguese BrazilianЯзык : PortugueseDefault : НетForced : Нет
Текст #12Идентификатор : 21Формат : UTF-8Идентификатор кодека : S_TEXT/UTF8Идентификатор кодека/Информация : UTF-8 Plain TextПродолжительность : 1 ч. 46 м.Битрейт : 87 бит/секElementCount : 1213Размер потока : 68,4 Кбайт (0%)Заголовок : ArabicЯзык : ArabicDefault : НетForced : Нет
Текст #13Идентификатор : 22Формат : UTF-8Идентификатор кодека : S_TEXT/UTF8Идентификатор кодека/Информация : UTF-8 Plain TextПродолжительность : 1 ч. 46 м.Битрейт : 89 бит/секElementCount : 1142Размер потока : 69,8 Кбайт (0%)Заголовок : BulgarianЯзык : BulgarianDefault : НетForced : Нет
Текст #14Идентификатор : 23Формат : UTF-8Идентификатор кодека : S_TEXT/UTF8Идентификатор кодека/Информация : UTF-8 Plain TextПродолжительность : 1 ч. 44 м.Битрейт : 51 бит/секElementCount : 1137Размер потока : 39,5 Кбайт (0%)Заголовок : BosnianЯзык : BosnianDefault : НетForced : Нет
Текст #15Идентификатор : 24Формат : UTF-8Идентификатор кодека : S_TEXT/UTF8Идентификатор кодека/Информация : UTF-8 Plain TextПродолжительность : 1 ч. 44 м.Битрейт : 58 бит/секElementCount : 1138Размер потока : 44,9 Кбайт (0%)Заголовок : HungarianЯзык : HungarianDefault : НетForced : Нет
Текст #16Идентификатор : 25Формат : UTF-8Идентификатор кодека : S_TEXT/UTF8Идентификатор кодека/Информация : UTF-8 Plain TextПродолжительность : 1 ч. 44 м.Битрейт : 44 бит/секElementCount : 832Размер потока : 34,3 Кбайт (0%)Заголовок : DutchЯзык : DutchDefault : НетForced : Нет
Текст #17Идентификатор : 26Формат : UTF-8Идентификатор кодека : S_TEXT/UTF8Идентификатор кодека/Информация : UTF-8 Plain TextПродолжительность : 1 ч. 44 м.Битрейт : 92 бит/секElementCount : 1137Размер потока : 70,9 Кбайт (0%)Заголовок : GreekЯзык : GreekDefault : НетForced : Нет
Текст #18Идентификатор : 27Формат : UTF-8Идентификатор кодека : S_TEXT/UTF8Идентификатор кодека/Информация : UTF-8 Plain TextПродолжительность : 1 ч. 48 м.Битрейт : 55 бит/секElementCount : 1136Размер потока : 43,7 Кбайт (0%)Заголовок : DanishЯзык : DanishDefault : НетForced : Нет
Текст #19Идентификатор : 28Формат : UTF-8Идентификатор кодека : S_TEXT/UTF8Идентификатор кодека/Информация : UTF-8 Plain TextПродолжительность : 1 ч. 46 м.Битрейт : 67 бит/секElementCount : 954Размер потока : 52,7 Кбайт (0%)Заголовок : HebrewЯзык : HebrewDefault : НетForced : Нет
Текст #20Идентификатор : 29Формат : UTF-8Идентификатор кодека : S_TEXT/UTF8Идентификатор кодека/Информация : UTF-8 Plain TextПродолжительность : 1 ч. 44 м.Битрейт : 56 бит/секElementCount : 1131Размер потока : 43,2 Кбайт (0%)Заголовок : IndonesianЯзык : IndonesianDefault : НетForced : Нет
Текст #21Идентификатор : 30Формат : UTF-8Идентификатор кодека : S_TEXT/UTF8Идентификатор кодека/Информация : UTF-8 Plain TextПродолжительность : 1 ч. 48 м.Битрейт : 60 бит/секElementCount : 1139Размер потока : 48,2 Кбайт (0%)Заголовок : IcelandicЯзык : IcelandicDefault : НетForced : Нет
Текст #22Идентификатор : 31Формат : UTF-8Идентификатор кодека : S_TEXT/UTF8Идентификатор кодека/Информация : UTF-8 Plain TextПродолжительность : 1 ч. 44 м.Битрейт : 37 бит/секElementCount : 1140Размер потока : 28,6 Кбайт (0%)Заголовок : Chinese SimplifiedЯзык : ChineseDefault : НетForced : Нет
Текст #23Идентификатор : 32Формат : UTF-8Идентификатор кодека : S_TEXT/UTF8Идентификатор кодека/Информация : UTF-8 Plain TextПродолжительность : 1 ч. 49 м.Битрейт : 43 бит/секElementCount : 1142Размер потока : 35,3 Кбайт (0%)Заголовок : KoreanЯзык : KoreanDefault : НетForced : Нет
Текст #24Идентификатор : 33Формат : UTF-8Идентификатор кодека : S_TEXT/UTF8Идентификатор кодека/Информация : UTF-8 Plain TextПродолжительность : 1 ч. 48 м.Битрейт : 58 бит/секElementCount : 1136Размер потока : 46,6 Кбайт (0%)Заголовок : NorwegianЯзык : NorwegianDefault : НетForced : Нет
Текст #25Идентификатор : 34Формат : UTF-8Идентификатор кодека : S_TEXT/UTF8Идентификатор кодека/Информация : UTF-8 Plain TextПродолжительность : 1 ч. 46 м.Битрейт : 56 бит/секElementCount : 1137Размер потока : 44,0 Кбайт (0%)Заголовок : PolishЯзык : PolishDefault : НетForced : Нет
Текст #26Идентификатор : 35Формат : UTF-8Идентификатор кодека : S_TEXT/UTF8Идентификатор кодека/Информация : UTF-8 Plain TextПродолжительность : 1 ч. 44 м.Битрейт : 56 бит/секElementCount : 1137Размер потока : 43,6 Кбайт (0%)Заголовок : RomanianЯзык : RomanianDefault : НетForced : Нет
Текст #27Идентификатор : 36Формат : UTF-8Идентификатор кодека : S_TEXT/UTF8Идентификатор кодека/Информация : UTF-8 Plain TextПродолжительность : 1 ч. 44 м.Битрейт : 50 бит/секElementCount : 1138Размер потока : 39,1 Кбайт (0%)Заголовок : SerbianЯзык : SerbianDefault : НетForced : Нет
Текст #28Идентификатор : 37Формат : UTF-8Идентификатор кодека : S_TEXT/UTF8Идентификатор кодека/Информация : UTF-8 Plain TextПродолжительность : 1 ч. 48 м.Битрейт : 43 бит/секElementCount : 1137Размер потока : 34,4 Кбайт (0%)Заголовок : SlovenianЯзык : SlovenianDefault : НетForced : Нет
Текст #29Идентификатор : 38Формат : UTF-8Идентификатор кодека : S_TEXT/UTF8Идентификатор кодека/Информация : UTF-8 Plain TextПродолжительность : 1 ч. 44 м.Битрейт : 142 бит/секElementCount : 1165Размер потока : 109 Кбайт (0%)Заголовок : ThaiЯзык : ThaiDefault : НетForced : Нет
Текст #30Идентификатор : 39Формат : UTF-8Идентификатор кодека : S_TEXT/UTF8Идентификатор кодека/Информация : UTF-8 Plain TextПродолжительность : 1 ч. 44 м.Битрейт : 58 бит/секElementCount : 1137Размер потока : 45,0 Кбайт (0%)Заголовок : TurkishЯзык : TurkishDefault : НетForced : Нет
Текст #31Идентификатор : 40Формат : UTF-8Идентификатор кодека : S_TEXT/UTF8Идентификатор кодека/Информация : UTF-8 Plain TextПродолжительность : 1 ч. 46 м.Битрейт : 94 бит/секElementCount : 1231Размер потока : 73,9 Кбайт (0%)Заголовок : PersianЯзык : PersianDefault : НетForced : Нет
Текст #32Идентификатор : 41Формат : UTF-8Идентификатор кодека : S_TEXT/UTF8Идентификатор кодека/Информация : UTF-8 Plain TextПродолжительность : 1 ч. 48 м.Битрейт : 55 бит/секElementCount : 1138Размер потока : 44,0 Кбайт (0%)Заголовок : FinnishЯзык : FinnishDefault : НетForced : Нет
Текст #33Идентификатор : 42Формат : UTF-8Идентификатор кодека : S_TEXT/UTF8Идентификатор кодека/Информация : UTF-8 Plain TextПродолжительность : 1 ч. 44 м.Битрейт : 51 бит/секElementCount : 1139Размер потока : 39,5 Кбайт (0%)Заголовок : CroatianЯзык : CroatianDefault : НетForced : Нет
Текст #34Идентификатор : 43Формат : UTF-8Идентификатор кодека : S_TEXT/UTF8Идентификатор кодека/Информация : UTF-8 Plain TextПродолжительность : 1 ч. 48 м.Битрейт : 60 бит/секElementCount : 1138Размер потока : 47,6 Кбайт (0%)Заголовок : CzechЯзык : CzechDefault : НетForced : Нет
Текст #35Идентификатор : 44Формат : UTF-8Идентификатор кодека : S_TEXT/UTF8Идентификатор кодека/Информация : UTF-8 Plain TextПродолжительность : 1 ч. 44 м.Битрейт : 43 бит/секElementCount : 706Размер потока : 33,4 Кбайт (0%)Заголовок : SwedishЯзык : SwedishDefault : НетForced : Нет
Текст #36Идентификатор : 45Формат : PGSИдентификатор кодека : S_HDMV/PGSИдентификатор кодека/Информация : Picture based subtitle format used on BDs/HD-DVDsПродолжительность : 1 ч. 46 м.Битрейт : 23,5 Кбит/секElementCount : 2182Размер потока : 17,9 Мбайт (0%)Заголовок : JapaneseЯзык : JapaneseDefault : НетForced : Нет
Меню00:00:00.000 : en:Cry for Help00:03:00.764 : en:Aftermath00:15:34.308 : en:An Ugly Case00:26:38.055 : en:Reckless Endangerment00:32:07.342 : en:A Change00:34:54.592 : en:Scorpion00:42:16.701 : en:I Owe Her00:49:25.254 : en:No Secrets00:55:52.224 : en:The Emergency Caller01:01:48.914 : en:Trial01:14:47.274 : en:Summation01:33:31.981 : en:I Don't Want to Lie01:41:27.707 : en:The Tenth House01:43:40.840 : en:Decision
Релиз группы:
--
[Profile]  [PM] 
Display posts:    
Reply to topic

Current time is: 21-Jul 21:37

All times are UTC + 2



You cannot post new topics in this forum
You cannot reply to topics in this forum
You cannot edit your posts in this forum
You cannot delete your posts in this forum
You cannot vote in polls in this forum
You cannot attach files in this forum
You cannot download files in this forum