Эпоха невинности / Век невинности / The Age of Innocence (Мартин Скорсезе / Martin Scorsese) [1993, США, драма, мелодрама, BDRemux 1080p] MVO (Видеосервис) + MVO (1 канал) + AVO (Андрей Гаврилов) + AVO (Леонид Володарский) + Sub Rus, Eng + Original E

Reply to topic
 
Author
Message

Faust ®

Gender: Unknown

Longevity: 12 years

Posts: 23202

Reputation: 0 [+] [-]

Faust · Post 14-Jun-2023 06:05

[Quote] 

Эпоха невинности / Век невинности / The Age of Innocence---USA Transfer | Criterion---
Страна: США
Студия: Cappa Production, Columbia Pictures
Жанр: драма, мелодрама
Год выпуска: 1993
Продолжительность: 02:18:38
Перевод: Профессиональный (многоголосый закадровый) - Видеосервис
Перевод: Профессиональный (многоголосый закадровый) - 1 канал
Перевод: Авторский (одноголосый закадровый) - Андрей Гаврилов
Перевод: Авторский (одноголосый закадровый) - Леонид Володарский
Субтитры: русские (Александр Васильев, FOCS (soulpunk)), английские (полные, для слабослышащих), немецкие, французские, испанские (европейские, латиноамериканские), итальянские, португальские (европейские, бразильские), арабские, болгарские, венгерские, вьетнамские, голландские, греческие, датские, иврит, индонезийские, исландские, китайские (упрощенные, традиционные), корейские, норвежские, польские, румынские, сербские, словенские, тайские, турецкие, украинские, фарси, финские, хинди, хорватские, чешские, шведские, японские
Оригинальная аудиодорожка: английский

Режиссер: Мартин Скорсезе / Martin Scorsese
В ролях: Дэниэл Дэй-Льюис, Мишель Пфайффер, Вайнона Райдер, Алексис Смит, Джеральдин Чаплин, Мэри Бет Хёрт, Алек МакКоуэн, Ричард Э. Грант, Мириам Марголис, Роберт Шон Леонард, Шан Филлипс, Джонатан Прайс, Майкл Гоф, Джоанн Вудворд, Стюарт Уилсон
Описание: Романтическая история показывает великолепие и лицемерие высшего света конца 80-х годов 19-го века. Ньюлэнд Арчер — преуспевающий адвокат, в глубине души желающий настоящей страсти в своем обыденном существовании. Помолвка с милой и благовоспитанной Мэй Уэлланд обещает ему благодушную и спокойную жизнь. Но когда кузина Мэй возвращается в Нью-Йорк после публичного скандала, Ньюлэнд попадает в сети ее тайной власти и невыразимой красоты. Теперь он вынужден сделать выбор между миром, который он знает, и миром, о котором он мог только мечтать. По одноимённому роману Эдит Уортон.--
Исходник - The.Age.of.Innocence.1993.1080p.BluRay.REMUX.AVC.DTS-HD.MA.5.1-CONSORTiUM.mkv. Добавлены дороги с предыдущего издания. Спасибо darkman70 и alenavova. А так же дорога 1 канала и русские субтитры отсюда. Спасибо andrmaj132. Подогнано без пересжатия. Обложка соответствует изданию. Сравнение с Sony Pictures Home Entertainment можно посмотреть здесь.
--Сэмпл | Кинопоиск | IMDb
Тип релиза: BDRemux 1080p
Контейнер: MKV
Видео: 1920x1080 (16:9), 23.976 fps, AVC, 29725 kbps, 0.645 bits/pixel
Аудио 1: Russian, 48.0 KHz, AC3, 6 ch, 448 Kbps - MVO Видеосервис
Аудио 2: Russian, 48.0 KHz, AC3, 2 ch, 192 Kbps - MVO 1 канал
Аудио 3: Russian, 48.0 KHz, AC3, 6 ch, 448 Kbps - AVO Андрей Гаврилов
Аудио 4: Russian, 48.0 KHz, AC3, 2 ch, 192 Kbps - AVO Леонид Володарский
Аудио 5: English, 48.0 KHz, DTS-HD, 6 ch, 3848 Kbps/1509 Kbps - Original Criterion Blu-Ray 5.1
Аудио 6: English, 48.0 KHz, AC3, 2 ch, 192 Kbps - Original Analog SVA Mix Sony Pictures EUR Blu-ray 2.0
Формат субтитров: softsub (SRT), PGS, VobSub

MediaInfo

ОбщееУникальный идентификатор                 : 230957282124900716076057155184623676410 (0xADC0C12A4F99CDB1992A32CDA9C0EBFA)Полное имя                               : U:\Vremyanka\The.Age.of.Innocence.1993.Criterion.BDRemux.1080p.mkvФормат                                   : MatroskaВерсия формата                           : Version 4Размер файла                             : 34,7 ГбайтПродолжительность                        : 2 ч. 18 м.Режим общего битрейта                    : ПеременныйОбщий поток                              : 35,8 Мбит/секНазвание фильма                          : The.Age.of.Innocence.1993.Criterion.BDRemux.1080p_AllFilms_tekoДата кодирования                         : UTC 2023-05-15 15:20:38Программа кодирования                    : mkvmerge v9.5.0 ('Quiet Fire') 64bitБиблиотека кодирования                   : libebml v1.3.4 + libmatroska v1.4.5Обложка                                  : YesAttachments                              : The.Age.of.Innocence.1993.Criterion.png / The.Age.of.Innocence.1993.DVD.Cover.jpg / The.Age.of.Innocence.1993.Print.png
ВидеоИдентификатор : 1Формат : AVCФормат/Информация : Advanced Video CodecПрофиль формата : High@L4.1Настройки формата : CABAC / 4 Ref FramesПараметр CABAC формата : ДаПараметр RefFrames формата : 4 кадраИдентификатор кодека : V_MPEG4/ISO/AVCПродолжительность : 2 ч. 18 м.Вид битрейта : ПеременныйБитрейт : 29,5 Мбит/секМаксимальный битрейт : 37,0 Мбит/секШирина : 1920 пикселейВысота : 1080 пикселейСоотношение сторон : 16:9Режим частоты кадров : ПостоянныйЧастота кадров : 23,976 (24000/1001) кадра/секЦветовое пространство : YUVСубдискретизация насыщенности : 4:2:0Битовая глубина : 8 битТип развёртки : ПрогрессивнаяБит/(Пиксели*Кадры) : 0.593Размер потока : 28,5 Гбайт (82%)Заголовок : The.Age.of.Innocence.1993.Criterion.BDRemux.1080pЯзык : EnglishDefault : ДаForced : Нет
Аудио #1Идентификатор : 2Формат : AC-3Формат/Информация : Audio Coding 3Коммерческое название : Dolby DigitalИдентификатор кодека : A_AC3Продолжительность : 2 ч. 18 м.Вид битрейта : ПостоянныйБитрейт : 448 Кбит/секКаналы : 6 каналовChannelLayout : L R C LFE Ls RsЧастота : 48,0 КГцЧастота кадров : 31,250 кадров/сек (1536 SPF)Метод сжатия : С потерямиРазмер потока : 444 Мбайт (1%)Заголовок : MVO ВидеосервисЯзык : RussianServiceKind/String : Complete MainDefault : ДаForced : Нет
Аудио #2Идентификатор : 3Формат : AC-3Формат/Информация : Audio Coding 3Коммерческое название : Dolby DigitalИдентификатор кодека : A_AC3Продолжительность : 2 ч. 18 м.Вид битрейта : ПостоянныйБитрейт : 192 Кбит/секКаналы : 2 каналаChannelLayout : L RЧастота : 48,0 КГцЧастота кадров : 31,250 кадров/сек (1536 SPF)Метод сжатия : С потерямиРазмер потока : 190 Мбайт (1%)Заголовок : MVO 1 каналЯзык : RussianServiceKind/String : Complete MainDefault : НетForced : Нет
Аудио #3Идентификатор : 4Формат : AC-3Формат/Информация : Audio Coding 3Коммерческое название : Dolby DigitalИдентификатор кодека : A_AC3Продолжительность : 2 ч. 18 м.Вид битрейта : ПостоянныйБитрейт : 448 Кбит/секКаналы : 6 каналовChannelLayout : L R C LFE Ls RsЧастота : 48,0 КГцЧастота кадров : 31,250 кадров/сек (1536 SPF)Метод сжатия : С потерямиРазмер потока : 444 Мбайт (1%)Заголовок : AVO Андрей ГавриловЯзык : RussianServiceKind/String : Complete MainDefault : НетForced : Нет
Аудио #4Идентификатор : 5Формат : AC-3Формат/Информация : Audio Coding 3Коммерческое название : Dolby DigitalИдентификатор кодека : A_AC3Продолжительность : 2 ч. 18 м.Вид битрейта : ПостоянныйБитрейт : 192 Кбит/секКаналы : 2 каналаChannelLayout : L RЧастота : 48,0 КГцЧастота кадров : 31,250 кадров/сек (1536 SPF)Метод сжатия : С потерямиРазмер потока : 190 Мбайт (1%)Заголовок : AVO Леонид ВолодарскийЯзык : RussianServiceKind/String : Complete MainDefault : НетForced : Нет
Аудио #5Идентификатор : 6Формат : DTS XLLФормат/Информация : Digital Theater SystemsКоммерческое название : DTS-HD Master AudioИдентификатор кодека : A_DTSПродолжительность : 2 ч. 18 м.Вид битрейта : ПеременныйБитрейт : 3848 Кбит/секКаналы : 6 каналовChannelLayout : C L R Ls Rs LFEЧастота : 48,0 КГцЧастота кадров : 93,750 кадра/сек (512 SPF)Битовая глубина : 24 битМетод сжатия : Без потерьРазмер потока : 3,73 Гбайт (11%)Заголовок : Original Criterion Blu-Ray 5.1Язык : EnglishDefault : НетForced : Нет
Аудио #6Идентификатор : 7Формат : AC-3Формат/Информация : Audio Coding 3Коммерческое название : Dolby DigitalИдентификатор кодека : A_AC3Продолжительность : 2 ч. 18 м.Вид битрейта : ПостоянныйБитрейт : 192 Кбит/секКаналы : 2 каналаChannelLayout : L RЧастота : 48,0 КГцЧастота кадров : 31,250 кадров/сек (1536 SPF)Метод сжатия : С потерямиРазмер потока : 190 Мбайт (1%)Заголовок : Original Analog SVA Mix Sony Pictures EUR Blu-ray 2.0Язык : EnglishServiceKind/String : Complete MainDefault : НетForced : Нет
Текст #1Идентификатор : 8Формат : UTF-8Идентификатор кодека : S_TEXT/UTF8Идентификатор кодека/Информация : UTF-8 Plain TextПродолжительность : 2 ч. 16 м.Битрейт : 109 бит/секElementCount : 1529Размер потока : 110 Кбайт (0%)Заголовок : Russian FOCSЯзык : RussianDefault : НетForced : Нет
Текст #2Идентификатор : 9Формат : UTF-8Идентификатор кодека : S_TEXT/UTF8Идентификатор кодека/Информация : UTF-8 Plain TextПродолжительность : 2 ч. 17 м.Битрейт : 105 бит/секElementCount : 1619Размер потока : 106 Кбайт (0%)Заголовок : Russian Андрей ВасильевЯзык : RussianDefault : НетForced : Нет
Текст #3Идентификатор : 10Формат : UTF-8Идентификатор кодека : S_TEXT/UTF8Идентификатор кодека/Информация : UTF-8 Plain TextПродолжительность : 2 ч. 6 м.Битрейт : 65 бит/секElementCount : 1522Размер потока : 60,5 Кбайт (0%)Заголовок : English FullЯзык : EnglishDefault : НетForced : Нет
Текст #4Идентификатор : 11Формат : PGSИдентификатор кодека : S_HDMV/PGSИдентификатор кодека/Информация : Picture based subtitle format used on BDs/HD-DVDsПродолжительность : 2 ч. 6 м.Битрейт : 46,0 Кбит/секElementCount : 3402Размер потока : 41,6 Мбайт (0%)Заголовок : English FullЯзык : EnglishDefault : НетForced : Нет
Текст #5Идентификатор : 12Формат : UTF-8Идентификатор кодека : S_TEXT/UTF8Идентификатор кодека/Информация : UTF-8 Plain TextПродолжительность : 2 ч. 15 м.Битрейт : 73 бит/секElementCount : 1794Размер потока : 72,9 Кбайт (0%)Заголовок : English SDHЯзык : EnglishDefault : НетForced : Нет
Текст #6Идентификатор : 13Формат : PGSИдентификатор кодека : S_HDMV/PGSИдентификатор кодека/Информация : Picture based subtitle format used on BDs/HD-DVDsПродолжительность : 2 ч. 15 м.Битрейт : 61,5 Кбит/секElementCount : 3588Размер потока : 59,8 Мбайт (0%)Заголовок : English SDH CriterionЯзык : EnglishDefault : НетForced : Нет
Текст #7Идентификатор : 14Формат : PGSИдентификатор кодека : S_HDMV/PGSИдентификатор кодека/Информация : Picture based subtitle format used on BDs/HD-DVDsПродолжительность : 2 ч. 8 м.Битрейт : 39,6 Кбит/секElementCount : 3646Размер потока : 36,4 Мбайт (0%)Заголовок : English SDH Sony PicturesЯзык : EnglishDefault : НетForced : Нет
Текст #8Идентификатор : 15Формат : PGSИдентификатор кодека : S_HDMV/PGSИдентификатор кодека/Информация : Picture based subtitle format used on BDs/HD-DVDsПродолжительность : 2 ч. 9 м.Битрейт : 49,5 Кбит/секElementCount : 3069Размер потока : 46,0 Мбайт (0%)Заголовок : GermanЯзык : GermanDefault : НетForced : Нет
Текст #9Идентификатор : 16Формат : PGSИдентификатор кодека : S_HDMV/PGSИдентификатор кодека/Информация : Picture based subtitle format used on BDs/HD-DVDsПродолжительность : 2 ч. 15 м.Битрейт : 40,1 Кбит/секElementCount : 3045Размер потока : 38,9 Мбайт (0%)Заголовок : FrenchЯзык : FrenchDefault : НетForced : Нет
Текст #10Идентификатор : 17Формат : PGSИдентификатор кодека : S_HDMV/PGSИдентификатор кодека/Информация : Picture based subtitle format used on BDs/HD-DVDsПродолжительность : 2 ч. 8 м.Битрейт : 45,0 Кбит/секElementCount : 3093Размер потока : 41,3 Мбайт (0%)Заголовок : Spanish CastilianЯзык : SpanishDefault : НетForced : Нет
Текст #11Идентификатор : 18Формат : PGSИдентификатор кодека : S_HDMV/PGSИдентификатор кодека/Информация : Picture based subtitle format used on BDs/HD-DVDsПродолжительность : 2 ч. 9 м.Битрейт : 39,6 Кбит/секElementCount : 3018Размер потока : 36,8 Мбайт (0%)Заголовок : Spanish Latin AmericanЯзык : SpanishDefault : НетForced : Нет
Текст #12Идентификатор : 19Формат : PGSИдентификатор кодека : S_HDMV/PGSИдентификатор кодека/Информация : Picture based subtitle format used on BDs/HD-DVDsПродолжительность : 2 ч. 9 м.Битрейт : 45,8 Кбит/секElementCount : 3052Размер потока : 42,6 Мбайт (0%)Заголовок : ItalianЯзык : ItalianDefault : НетForced : Нет
Текст #13Идентификатор : 20Формат : PGSИдентификатор кодека : S_HDMV/PGSИдентификатор кодека/Информация : Picture based subtitle format used on BDs/HD-DVDsПродолжительность : 2 ч. 9 м.Битрейт : 43,0 Кбит/секElementCount : 3069Размер потока : 40,0 Мбайт (0%)Заголовок : Portuguese IberianЯзык : PortugueseDefault : НетForced : Нет
Текст #14Идентификатор : 21Формат : UTF-8Идентификатор кодека : S_TEXT/UTF8Идентификатор кодека/Информация : UTF-8 Plain TextПродолжительность : 2 ч. 12 м.Битрейт : 62 бит/секElementCount : 1530Размер потока : 60,1 Кбайт (0%)Заголовок : Portuguese BrazilianЯзык : PortugueseDefault : НетForced : Нет
Текст #15Идентификатор : 22Формат : PGSИдентификатор кодека : S_HDMV/PGSИдентификатор кодека/Информация : Picture based subtitle format used on BDs/HD-DVDsПродолжительность : 2 ч. 8 м.Битрейт : 21,9 Кбит/секElementCount : 3087Размер потока : 20,1 Мбайт (0%)Заголовок : ArabicЯзык : ArabicDefault : НетForced : Нет
Текст #16Идентификатор : 23Формат : VobSubИдентификатор кодека : S_VOBSUBИдентификатор кодека/Информация : Picture based subtitle format used on DVDsПродолжительность : 2 ч. 17 м.Битрейт : 2576 бит/секElementCount : 1021Размер потока : 2,53 Мбайт (0%)Заголовок : BulgarianЯзык : BulgarianDefault : НетForced : Нет
Текст #17Идентификатор : 24Формат : PGSИдентификатор кодека : S_HDMV/PGSИдентификатор кодека/Информация : Picture based subtitle format used on BDs/HD-DVDsПродолжительность : 2 ч. 8 м.Битрейт : 45,8 Кбит/секElementCount : 3085Размер потока : 42,0 Мбайт (0%)Заголовок : HungarianЯзык : HungarianDefault : НетForced : Нет
Текст #18Идентификатор : 25Формат : UTF-8Идентификатор кодека : S_TEXT/UTF8Идентификатор кодека/Информация : UTF-8 Plain TextПродолжительность : 2 ч. 11 м.Битрейт : 96 бит/секElementCount : 1649Размер потока : 92,6 Кбайт (0%)Заголовок : VietnameseЯзык : VietnameseDefault : НетForced : Нет
Текст #19Идентификатор : 26Формат : PGSИдентификатор кодека : S_HDMV/PGSИдентификатор кодека/Информация : Picture based subtitle format used on BDs/HD-DVDsПродолжительность : 2 ч. 6 м.Битрейт : 45,5 Кбит/секElementCount : 3072Размер потока : 41,2 Мбайт (0%)Заголовок : DutchЯзык : DutchDefault : НетForced : Нет
Текст #20Идентификатор : 27Формат : PGSИдентификатор кодека : S_HDMV/PGSИдентификатор кодека/Информация : Picture based subtitle format used on BDs/HD-DVDsПродолжительность : 2 ч. 8 м.Битрейт : 50,1 Кбит/секElementCount : 3095Размер потока : 45,9 Мбайт (0%)Заголовок : GreekЯзык : GreekDefault : НетForced : Нет
Текст #21Идентификатор : 28Формат : PGSИдентификатор кодека : S_HDMV/PGSИдентификатор кодека/Информация : Picture based subtitle format used on BDs/HD-DVDsПродолжительность : 2 ч. 15 м.Битрейт : 42,6 Кбит/секElementCount : 3089Размер потока : 41,3 Мбайт (0%)Заголовок : DanishЯзык : DanishDefault : НетForced : Нет
Текст #22Идентификатор : 29Формат : PGSИдентификатор кодека : S_HDMV/PGSИдентификатор кодека/Информация : Picture based subtitle format used on BDs/HD-DVDsПродолжительность : 2 ч. 8 м.Битрейт : 29,7 Кбит/секElementCount : 3087Размер потока : 27,3 Мбайт (0%)Заголовок : HebrewЯзык : HebrewDefault : НетForced : Нет
Текст #23Идентификатор : 30Формат : UTF-8Идентификатор кодека : S_TEXT/UTF8Идентификатор кодека/Информация : UTF-8 Plain TextПродолжительность : 2 ч. 16 м.Битрейт : 65 бит/секElementCount : 1703Размер потока : 65,6 Кбайт (0%)Заголовок : IndonesianЯзык : IndonesianDefault : НетForced : Нет
Текст #24Идентификатор : 31Формат : UTF-8Идентификатор кодека : S_TEXT/UTF8Идентификатор кодека/Информация : UTF-8 Plain TextПродолжительность : 2 ч. 10 м.Битрейт : 73 бит/секElementCount : 1542Размер потока : 70,8 Кбайт (0%)Заголовок : IcelandicЯзык : IcelandicDefault : НетForced : Нет
Текст #25Идентификатор : 32Формат : UTF-8Идентификатор кодека : S_TEXT/UTF8Идентификатор кодека/Информация : UTF-8 Plain TextПродолжительность : 2 ч. 16 м.Битрейт : 51 бит/секElementCount : 1612Размер потока : 51,2 Кбайт (0%)Заголовок : Chinese SimplifiedЯзык : ChineseDefault : НетForced : Нет
Текст #26Идентификатор : 33Формат : PGSИдентификатор кодека : S_HDMV/PGSИдентификатор кодека/Информация : Picture based subtitle format used on BDs/HD-DVDsПродолжительность : 2 ч. 9 м.Битрейт : 28,8 Кбит/секElementCount : 3070Размер потока : 26,7 Мбайт (0%)Заголовок : Chinese TraditionalЯзык : ChineseDefault : НетForced : Нет
Текст #27Идентификатор : 34Формат : PGSИдентификатор кодека : S_HDMV/PGSИдентификатор кодека/Информация : Picture based subtitle format used on BDs/HD-DVDsПродолжительность : 2 ч. 9 м.Битрейт : 25,2 Кбит/секElementCount : 3060Размер потока : 23,5 Мбайт (0%)Заголовок : KoreanЯзык : KoreanDefault : НетForced : Нет
Текст #28Идентификатор : 35Формат : PGSИдентификатор кодека : S_HDMV/PGSИдентификатор кодека/Информация : Picture based subtitle format used on BDs/HD-DVDsПродолжительность : 2 ч. 8 м.Битрейт : 42,8 Кбит/секElementCount : 3086Размер потока : 39,3 Мбайт (0%)Заголовок : NorwegianЯзык : NorwegianDefault : НетForced : Нет
Текст #29Идентификатор : 36Формат : PGSИдентификатор кодека : S_HDMV/PGSИдентификатор кодека/Информация : Picture based subtitle format used on BDs/HD-DVDsПродолжительность : 2 ч. 8 м.Битрейт : 45,1 Кбит/секElementCount : 3081Размер потока : 41,4 Мбайт (0%)Заголовок : PolishЯзык : PolishDefault : НетForced : Нет
Текст #30Идентификатор : 37Формат : UTF-8Идентификатор кодека : S_TEXT/UTF8Идентификатор кодека/Информация : UTF-8 Plain TextПродолжительность : 2 ч. 11 м.Битрейт : 76 бит/секElementCount : 1681Размер потока : 73,3 Кбайт (0%)Заголовок : RomanianЯзык : RomanianDefault : НетForced : Нет
Текст #31Идентификатор : 38Формат : UTF-8Идентификатор кодека : S_TEXT/UTF8Идентификатор кодека/Информация : UTF-8 Plain TextПродолжительность : 2 ч. 10 м.Битрейт : 63 бит/секElementCount : 1544Размер потока : 61,2 Кбайт (0%)Заголовок : SerbianЯзык : SerbianDefault : НетForced : Нет
Текст #32Идентификатор : 39Формат : UTF-8Идентификатор кодека : S_TEXT/UTF8Идентификатор кодека/Информация : UTF-8 Plain TextПродолжительность : 2 ч. 9 м.Битрейт : 57 бит/секElementCount : 1497Размер потока : 55,1 Кбайт (0%)Заголовок : SlovenianЯзык : SlovenianDefault : НетForced : Нет
Текст #33Идентификатор : 40Формат : PGSИдентификатор кодека : S_HDMV/PGSИдентификатор кодека/Информация : Picture based subtitle format used on BDs/HD-DVDsПродолжительность : 2 ч. 9 м.Битрейт : 29,1 Кбит/секElementCount : 3056Размер потока : 27,0 Мбайт (0%)Заголовок : ThaiЯзык : ThaiDefault : НетForced : Нет
Текст #34Идентификатор : 41Формат : PGSИдентификатор кодека : S_HDMV/PGSИдентификатор кодека/Информация : Picture based subtitle format used on BDs/HD-DVDsПродолжительность : 2 ч. 8 м.Битрейт : 45,4 Кбит/секElementCount : 3103Размер потока : 41,6 Мбайт (0%)Заголовок : TurkishЯзык : TurkishDefault : НетForced : Нет
Текст #35Идентификатор : 42Формат : UTF-8Идентификатор кодека : S_TEXT/UTF8Идентификатор кодека/Информация : UTF-8 Plain TextПродолжительность : 2 ч. 16 м.Битрейт : 103 бит/секElementCount : 1611Размер потока : 103 Кбайт (0%)Заголовок : UkrainianЯзык : UkrainianDefault : НетForced : Нет
Текст #36Идентификатор : 43Формат : UTF-8Идентификатор кодека : S_TEXT/UTF8Идентификатор кодека/Информация : UTF-8 Plain TextПродолжительность : 2 ч. 6 м.Битрейт : 107 бит/секElementCount : 1520Размер потока : 99,6 Кбайт (0%)Заголовок : PersianЯзык : PersianDefault : НетForced : Нет
Текст #37Идентификатор : 44Формат : PGSИдентификатор кодека : S_HDMV/PGSИдентификатор кодека/Информация : Picture based subtitle format used on BDs/HD-DVDsПродолжительность : 2 ч. 8 м.Битрейт : 42,2 Кбит/секElementCount : 3084Размер потока : 38,7 Мбайт (0%)Заголовок : FinnishЯзык : FinnishDefault : НетForced : Нет
Текст #38Идентификатор : 45Формат : PGSИдентификатор кодека : S_HDMV/PGSИдентификатор кодека/Информация : Picture based subtitle format used on BDs/HD-DVDsПродолжительность : 2 ч. 8 м.Битрейт : 32,6 Кбит/секElementCount : 3091Размер потока : 29,9 Мбайт (0%)Заголовок : HindiЯзык : HindiDefault : НетForced : Нет
Текст #39Идентификатор : 46Формат : VobSubИдентификатор кодека : S_VOBSUBИдентификатор кодека/Информация : Picture based subtitle format used on DVDsПродолжительность : 2 ч. 15 м.Битрейт : 3532 бит/секElementCount : 1544Размер потока : 3,43 Мбайт (0%)Заголовок : CroatianЯзык : CroatianDefault : НетForced : Нет
Текст #40Идентификатор : 47Формат : PGSИдентификатор кодека : S_HDMV/PGSИдентификатор кодека/Информация : Picture based subtitle format used on BDs/HD-DVDsПродолжительность : 2 ч. 8 м.Битрейт : 40,6 Кбит/секElementCount : 3077Размер потока : 37,2 Мбайт (0%)Заголовок : CzechЯзык : CzechDefault : НетForced : Нет
Текст #41Идентификатор : 48Формат : PGSИдентификатор кодека : S_HDMV/PGSИдентификатор кодека/Информация : Picture based subtitle format used on BDs/HD-DVDsПродолжительность : 2 ч. 15 м.Битрейт : 37,9 Кбит/секElementCount : 3081Размер потока : 36,8 Мбайт (0%)Заголовок : SwedishЯзык : SwedishDefault : НетForced : Нет
Текст #42Идентификатор : 49Формат : PGSИдентификатор кодека : S_HDMV/PGSИдентификатор кодека/Информация : Picture based subtitle format used on BDs/HD-DVDsПродолжительность : 2 ч. 10 м.Битрейт : 29,5 Кбит/секElementCount : 3060Размер потока : 27,5 Мбайт (0%)Заголовок : JapaneseЯзык : JapaneseDefault : НетForced : Нет
Меню00:00:00.000 : en:The Countess Olenska00:07:46.591 : en:The Beauforts' Ball00:15:18.543 : en:The Archers and the Mingotts00:24:59.498 : en:Tribal Order00:36:01.576 : en:"A Rather Delicate Matter"00:49:40.644 : en:"Is There Someone Else?"00:58:00.936 : en:"Marriage Is Marriage"01:08:46.539 : en:Discarded Experiment01:13:25.401 : en:Newport01:21:20.376 : en:Broken Faith01:33:03.495 : en:"Honor and Honesty"01:42:30.394 : en:All Over01:51:35.230 : en:"Quiet Conspirators"02:02:01.231 : en:"She Never Asked"02:13:16.322 : en:Closing Credits
Релиз группы:
--
[Profile]  [PM] 
Display posts:    
Reply to topic

Current time is: 21-Jul 21:37

All times are UTC + 2



You cannot post new topics in this forum
You cannot reply to topics in this forum
You cannot edit your posts in this forum
You cannot delete your posts in this forum
You cannot vote in polls in this forum
You cannot attach files in this forum
You cannot download files in this forum