Матч жизни / The Match (Доминик Седлар / Dominik Sedlar) [2020, Хорватия, США, Драма, военный, история, спорт, BDRip 1080p] MVO (Велес) + Original (Eng) + Sub (eng)

Reply to topic
 
Author
Message

Faust ®

Gender: Unknown

Longevity: 12 years

Posts: 23187

Reputation: 0 [+] [-]

Faust · Post 14-Jun-2023 06:05

[Quote] 

Матч жизни / The Match
Выиграть значит победить
Страна: Хорватия, США
Жанр: Драма, военный, история, спорт
Год выпуска: 2020
Продолжительность: 01:59:59-Перевод: Профессиональный (многоголосый закадровый) | Велес
Cубтитры: Английские (Full)
Оригинальная аудиодорожка: Английский-Режиссёр: Доминик Седлар / Dominik Sedlar
В ролях: Франко Неро, Каспар Филлипсон, Арманд Ассанте, Маркус Герткен, Виктор Кулганек, Андрей Дойкич, Филип Тальгамн, Филипп Рейнхардт, Милтон Уэлш, Паско Вукасович,
Описание: Весна 1944 года. На день рождения Адольфа Гитлера нацисты организовывают футбольный матч между узниками концлагеря и элитной нацистской командой. Матч, который заключенные настроены выиграть любой ценой.- -Тип релиза: BDRip 1080p
Контейнер: MKV-Видео: AVC/H.264, 1920x806, 14300 Kbps, 23.976 fps
Аудио 1: Русский | AC-3, 6 ch, 640 Kbps, 48.0 kHz
Аудио 2: Английский | DTS, 6 ch, 768 Kbps, 48.0 kHz
Формат субтитров: softsub (SRT)-

MediaInfo

General
Unique ID                                : 14467444773539088298042976957192630658 (0xAE2541948DD296C4C2631157F667182)
Complete name                            : /Volumes/Promise Pegasus/The.Match.2020.BDRip.1080p.pk.mkv
Format                                   : Matroska
Format version                           : Version 4
File size                                : 13.2 GiB
Duration                                 : 1 h 59 min
Overall bit rate                         : 15.7 Mb/s
Frame rate                               : 23.976 FPS
Movie name                               : The Match 2020 BDRip 1080p pk
Encoded date                             : 2023-05-31 22:02:28 UTC
Writing application                      : mkvmerge v73.0.0 ('25 or 6 to 4') 64-bit
Writing library                          : libebml v1.4.4 + libmatroska v1.7.1
Video
ID                                       : 1
Format                                   : AVC
Format/Info                              : Advanced Video Codec
Format profile                           : High@L4.1
Format settings                          : CABAC / 5 Ref Frames
Format settings, CABAC                   : Yes
Format settings, Reference frames        : 5 frames
Codec ID                                 : V_MPEG4/ISO/AVC
Duration                                 : 1 h 59 min
Bit rate                                 : 14.3 Mb/s
Width                                    : 1 920 pixels
Height                                   : 806 pixels
Display aspect ratio                     : 2.40:1
Frame rate mode                          : Constant
Frame rate                               : 23.976 (24000/1001) FPS
Color space                              : YUV
Chroma subsampling                       : 4:2:0
Bit depth                                : 8 bits
Scan type                                : Progressive
Bits/(Pixel*Frame)                       : 0.386
Stream size                              : 12.0 GiB (91%)
Writing library                          : x264 core 164 r3106+55M encoded by pk5360114 in Russia
Encoding settings                        : cabac=1 / ref=5 / deblock=1:-3:-3 / analyse=0x3:0x133 / me=umh / subme=11 / psy=1 / fade_compensate=0.00 / psy_rd=1.00:0.00 / mixed_ref=1 / me_range=32 / chroma_me=1 / trellis=2 / 8x8dct=1 / cqm=0 / deadzone=21,11 / fast_pskip=0 / chroma_qp_offset=-2 / threads=25 / lookahead_threads=4 / sliced_threads=0 / nr=0 / decimate=0 / interlaced=0 / bluray_compat=0 / constrained_intra=0 / fgo=0 / bframes=8 / b_pyramid=2 / b_adapt=2 / b_bias=0 / direct=3 / weightb=1 / open_gop=0 / weightp=2 / keyint=240 / keyint_min=23 / scenecut=40 / intra_refresh=0 / rc_lookahead=60 / rc=crf / mbtree=0 / crf=16.5000 / qcomp=0.65 / qpmin=0:0:0 / qpmax=69:69:69 / qpstep=4 / vbv_maxrate=62500 / vbv_bufsize=78125 / crf_max=0.0 / nal_hrd=none / filler=0 / ip_ratio=1.30 / pb_ratio=1.20 / aq=3:0.80 / aq-sensitivity=10.00 / aq-factor=1.00:1.00:1.00 / aq2=0 / aq3=0
Language                                 : English
Default                                  : Yes
Forced                                   : No
Color range                              : Limited
Color primaries                          : BT.709
Transfer characteristics                 : BT.709
Matrix coefficients                      : BT.709
Audio #1
ID                                       : 2
Format                                   : AC-3
Format/Info                              : Audio Coding 3
Commercial name                          : Dolby Digital
Codec ID                                 : A_AC3
Duration                                 : 1 h 59 min
Bit rate mode                            : Constant
Bit rate                                 : 640 kb/s
Channel(s)                               : 6 channels
Channel layout                           : L R C LFE Ls Rs
Sampling rate                            : 48.0 kHz
Frame rate                               : 31.250 FPS (1536 SPF)
Compression mode                         : Lossy
Stream size                              : 547 MiB (4%)
Title                                    : Russian Dub Veles
Language                                 : Russian
Service kind                             : Complete Main
Default                                  : Yes
Forced                                   : No
Audio #2
ID                                       : 3
Format                                   : DTS
Format/Info                              : Digital Theater Systems
Codec ID                                 : A_DTS
Duration                                 : 1 h 59 min
Bit rate mode                            : Constant
Bit rate                                 : 768 kb/s
Channel(s)                               : 6 channels
Channel layout                           : C L R Ls Rs LFE
Sampling rate                            : 48.0 kHz
Frame rate                               : 93.750 FPS (512 SPF)
Bit depth                                : 16 bits
Compression mode                         : Lossy
Stream size                              : 659 MiB (5%)
Title                                    : English Original
Language                                 : English
Default                                  : No
Forced                                   : No
Text
ID                                       : 4
Format                                   : UTF-8
Codec ID                                 : S_TEXT/UTF8
Codec ID/Info                            : UTF-8 Plain Text
Duration                                 : 1 h 56 min
Bit rate                                 : 51 b/s
Frame rate                               : 0.218 FPS
Count of elements                        : 1520
Stream size                              : 44.0 KiB (0%)
Title                                    : English full
Language                                 : English
Default                                  : No
Forced                                   : No
Menu
00:00:00.000                             : Chapter 01
00:17:44.021                             : Chapter 02
00:32:50.010                             : Chapter 03
00:44:55.276                             : Chapter 04
00:58:38.724                             : Chapter 05
01:17:46.245                             : Chapter 06
01:27:39.337                             : Chapter 07
01:42:53.918                             : Chapter 08

x264 log

x264 [info]: frame I:1430  Avg QP:13.43  size:216259
x264 [info]: frame P:38762 Avg QP:14.71  size:118442
x264 [info]: frame B:132434 Avg QP:15.85  size: 60304
x264 [info]: consecutive B-frames:  3.5%  4.0%  8.1%  9.5% 13.0% 57.3%  3.0%  0.5%  1.2%
x264 [info]: kb/s:14318.61

Скриншоты сравнения




Скриншоты

[Profile]  [PM] 
Display posts:    
Reply to topic

Current time is: 20-Jul 02:39

All times are UTC + 2



You cannot post new topics in this forum
You cannot reply to topics in this forum
You cannot edit your posts in this forum
You cannot delete your posts in this forum
You cannot vote in polls in this forum
You cannot attach files in this forum
You cannot download files in this forum