Король рок-н-ролла / Такой же / The Identical (Дастин Марселлино / Dustin Marcellino) [2014, США, драма, музыка, WEB-DL 1080p] Dub

Reply to topic
 
Author
Message

Faust ®

Gender: Unknown

Longevity: 12 years

Posts: 23187

Reputation: 0 [+] [-]

Faust · Post 14-Jun-2023 06:05

[Quote] 

Король рок-н-ролла / Такой же / The Identical
Год выпуска: 2014
Страна: США
Жанр: драма, музыка
Продолжительность: 01:46:44
Перевод: Профессиональный (дублированный)
Cубтитры: нет
Режиссер: Дастин Марселлино / Dustin Marcellino
В ролях: Сет Грин, Эшли Джадд, Джо Пантолиано, Блейк Рейн, Рэй Лиотта, Эрин Коттрелл, Брайан Джерати, Аманда Крю, Уэйлон Пэйн, Дэнни Вудберн, Крис Малки, Ной Урреа, Гэри Бити
Описание: Братья-близнецы неосознанно разделены при рождении; один из них начинает карьеру рок-исполнителя. В погоне за своей мечтой и славой он находит любовь и боль, обретает успех и терпит неудачи и, в конце концов, раскрывает тайну о том, кто же он есть на самом деле.-imdb | kinopoisk | Сэмпл-Спасибо m4rtyr за исходник.-Качество: WEB-DL 1080p [КиноПоиск]
Формат видео: MKV
Видео: 1920x796, 24 fps, AVC, 3892 kbps
Аудио Rus: AAC / 2.0 / 48 kHz / 192 kbps

MediaInfo

GeneralComplete name                  : The.Identical.WEB-DL.1080p.mkvFormat                         : MatroskaFormat version                 : Version 4File size                      : 3.04 GiBDuration                       : 1 h 46 minOverall bit rate               : 4 084 kb/sFrame rate                     : 24.000 FPSEncoded date                   : 2023-05-30 16:24:07 UTCWriting application            : mkvmerge v73.0.0 ('25 or 6 to 4') 64-bitWriting library                : libebml v1.4.4 + libmatroska v1.7.1Cover                          : YesAttachments                    : cover.jpg
VideoID : 1Format : AVCFormat/Info : Advanced Video CodecFormat profile : Progressive High@L4Format settings : CABAC / 5 Ref FramesFormat settings, CABAC : YesFormat settings, Reference fra : 5 framesCodec ID : V_MPEG4/ISO/AVCDuration : 1 h 46 minBit rate : 3 892 kb/sNominal bit rate : 3 069 kb/sWidth : 1 920 pixelsHeight : 796 pixelsDisplay aspect ratio : 2.40:1Frame rate mode : ConstantFrame rate : 24.000 FPSColor space : YUVChroma subsampling : 4:2:0Bit depth : 8 bitsScan type : ProgressiveBits/(Pixel*Frame) : 0.106Stream size : 2.90 GiB (95%)Writing library : x264 core 157Encoding settings : cabac=1 / ref=5 / deblock=1:0:0 / analyse=0x3:0x133 / me=umh / subme=10 / psy=1 / psy_rd=1.00:0.00 / mixed_ref=1 / me_range=24 / chroma_me=1 / trellis=2 / 8x8dct=1 / cqm=0 / deadzone=21,11 / fast_pskip=1 / chroma_qp_offset=-2 / threads=25 / lookahead_threads=4 / sliced_threads=0 / nr=0 / decimate=1 / interlaced=0 / bluray_compat=0 / stitchable=1 / constrained_intra=0 / bframes=8 / b_pyramid=2 / b_adapt=2 / b_bias=0 / direct=3 / weightb=1 / open_gop=0 / weightp=2 / keyint=250 / keyint_min=24 / scenecut=40 / intra_refresh=0 / rc_lookahead=96 / rc=abr / mbtree=1 / bitrate=3069 / ratetol=1.0 / qcomp=0.60 / qpmin=0 / qpmax=69 / qpstep=4 / vbv_maxrate=3375 / vbv_bufsize=6138 / nal_hrd=none / filler=0 / ip_ratio=1.40 / aq=1:1.00Language : EnglishDefault : YesForced : No
AudioID : 2Format : AAC LCFormat/Info : Advanced Audio Codec Low ComplexityCodec ID : A_AAC-2Duration : 1 h 46 minBit rate : 192 kb/sChannel(s) : 2 channelsChannel layout : L RSampling rate : 48.0 kHzFrame rate : 46.875 FPS (1024 SPF)Compression mode : LossyStream size : 144 MiB (5%)Language : RussianDefault : YesForced : No

Скриншоты


[Profile]  [PM] 
Display posts:    
Reply to topic

Current time is: 20-Jul 02:39

All times are UTC + 2



You cannot post new topics in this forum
You cannot reply to topics in this forum
You cannot edit your posts in this forum
You cannot delete your posts in this forum
You cannot vote in polls in this forum
You cannot attach files in this forum
You cannot download files in this forum