Сеть / The Net (Ирвин Уинклер / Irwin Winkler) [1995, США, боевик, триллер, драма, криминал, детектив, BDRemux 1080p] Dub + DVO + 3x MVO + 3x AVO + VO + Sub Rus, Eng + Original Eng

Reply to topic
 
Author
Message

Faust ®

Gender: Unknown

Longevity: 12 years

Posts: 23202

Reputation: 0 [+] [-]

Faust · Post 14-Jun-2023 06:05

[Quote] 

Сеть / The Net---USA Transfer | Sony Pictures--- Страна: США
Студия: Columbia Pictures Corporation, Winkler Films
Жанр: боевик, триллер, драма, криминал, детектив
Год выпуска: 1995
Продолжительность: 01:54:18
Перевод: Профессиональный (дублированный)
Перевод: Профессиональный (двухголосый закадровый) - D2LAB
Перевод: Профессиональный (многоголосый закадровый) - Видеосервис
Перевод: Профессиональный (многоголосый закадровый) - ТВЦ
Перевод: Профессиональный (многоголосый закадровый) - РТР
Перевод: Авторский (одноголосый закадровый) - Юрий Живов
Перевод: Авторский (одноголосый закадровый) - Сергей Визгунов
Перевод: Авторский (одноголосый закадровый) - Пётр Карцев
Перевод: Одноголосый закадровый - Неизвестный
Субтитры: русские, английские (аполные, для слабослышащих), немецкие, французские, испанские (европейские, латиноамериканские), итальянские, португальские (европейские, бразильские), арабские, болгарские, боснийские, вьетнамские, голландские, греческие, датские, иврит, индонезийские, исландские, китайские (упрощённые, традиционные), корейские, норвежские, польские, румынские, сербские, словенские, тайские, турецкие, украинские, хинди, финские, хорватские, чешские, шведские, эстонские, японские
Оригинальная аудиодорожка: английский

Режиссер: Ирвин Уинклер / Irwin Winkler
В ролях: Сандра Буллок, Джереми Нортэм, Дэннис Миллер, Дайан Бэйкер, Венди Газелль, Кен Ховард, Рэй МакКиннон, Дэниэл Шорр, Л. Скотт Колдуэлл, Роберт Госсетт, Кристина Кроффт, Хуан Гарсия, Тони Перес, Марго Уинклер, Джин Кирквуд
Описание: Как и все мы, Анжела Беннет живет в век информации. Все аспекты ее существования переведены в цифры и занесены в различные компьютерные базы данных: личный идентификационный номер, номер банковского счета, номер страхового свидетельства, номер водительского удостоверения, сведения об отсутствии судимости. Работа Анжелы тоже связана с компьютерами - она программист. Существование Анжелы Беннет полностью компьютеризованно. Она не придает этому значения, но однажды ее личность стирают! Гуляя по компьютерной сети, Анжела случайно перебегает дорогу преторианцам. Преторианцами называют себя члены организованной группы хакеров, на счету которых взломы правительственных систем безопасности, биржевые крахи, авиакатастрофы и убийства, совершенные с использованием только одного оружия - всемирной сети интернет. Анжела становится следующей жертвой в списке хакеров.Они стирают ее личность и вписывают в биографию Анжелы новое имя и преступное прошлое. Согласно сфабрикованным данным, Анжела - опасная преступница, которая находится в розыске. Она должна найти в себе силы побороть злых компьютерных гениев.--
Исходник - The.Net.1995.BluRay.1080p.DTS-HD.MA.5.1.AVC.REMUX-FraMeSToR.mkv. Добавлены русские дорожки отсюда и отсюда. Дороги не тронуты. Обложка соответствует изданию.
--Сэмпл | Кинопоиск | IMDb
Тип релиза: BDRemux 1080p
Контейнер: MKV
Видео: 1920x1080 (16:9), 23.976 fps, AVC, 24890 kbps, 0.606 bits/pixel
Аудио 1: Russian, 48.0 KHz, AC3, 6 ch, 384 Kbps - Dub
Аудио 2: Russian, 48.0 KHz, DTS-HD MA, 6 ch, 4250 Kbps/1509 Kbps - MVO D2Lab
Аудио 3: Russian, 48.0 KHz, AC3, 6 ch, 384 Kbps - MVO НТВ / Видеосервис
Аудио 4: Russian, 48.0 KHz, AC3, 2 ch, 192 Kbps - MVO НТВ / ТВЦ
Аудио 5: Russian, 48.0 KHz, AC3, 2 ch, 192 Kbps - MVO РТР
Аудио 6: Russian, 48.0 KHz, DTS-HD MA, 6 ch, 2047 Kbps/1509 Kbps - AVO Юрий Живов
Аудио 7: Russian, 48.0 KHz, AC3, 2 ch, 192 Kbps - AVO Сергей Визгунов
Аудио 8: Russian, 48.0 KHz, DTS-HD MA, 6 ch, 2047 Kbps/1509 Kbps - AVO Пётр Карцев
Аудио 9: Russian, 48.0 KHz, AC3, 2 ch, 192 Kbps - VO Неизвестный
Аудио 10: English, 48.0 KHz, DTS-HD MA, 6 ch, 4222 Kbps/1509 Kbps - Original
Аудио 11: English, 48.0 KHz, AC3, 2 ch, 192 Kbps - Commentary by director Irwin Winkler and producer Rob Cowan
Аудио 12: English, 48.0 KHz, AC3, 2 ch, 192 Kbps - Commentary by writers Michael Ferris & John Brancato
Аудио 13: Russian, 48.0 KHz, AC3, 2 ch, 192 Kbps - VO 2Dlab Commentary by director Irwin Winkler and producer Rob Cowan
Формат субтитров: softsub (SRT)

MediaInfo

ОбщееУникальный идентификатор                 : 200192707295402165589569629312122530383 (0x969BB684BB2BBC4DADF043FCEAEAAA4F)Полное имя                               : U:\Vremyanka\The.Net.1995.Sony.Pictures.BDRemux.1080p.mkvФормат                                   : MatroskaВерсия формата                           : Version 4Размер файла                             : 32,2 ГбайтПродолжительность                        : 1 ч. 54 м.Режим общего битрейта                    : ПеременныйОбщий поток                              : 40,3 Мбит/секНазвание фильма                          : The.Net.1995.Sony.Pictures.BDRemux.1080p_AllFilms_tekoДата кодирования                         : UTC 2023-05-30 18:02:14Программа кодирования                    : mkvmerge v9.5.0 ('Quiet Fire') 64bitБиблиотека кодирования                   : libebml v1.3.4 + libmatroska v1.4.5Обложка                                  : YesAttachments                              : The.Net.1995.BD.Cover.jpg / The.Net.1995.BD.Print.png / The.Net.1995.DVD.Cover.jpg / The.Net.1995.Print.png / The.Net.1995.Afisha.jpg
ВидеоИдентификатор : 1Формат : AVCФормат/Информация : Advanced Video CodecПрофиль формата : High@L4.1Настройки формата : CABAC / 2 Ref FramesПараметр CABAC формата : ДаПараметр RefFrames формата : 2 кадраИдентификатор кодека : V_MPEG4/ISO/AVCПродолжительность : 1 ч. 54 м.Вид битрейта : ПеременныйБитрейт : 24,9 Мбит/секШирина : 1920 пикселейВысота : 1080 пикселейСоотношение сторон : 16:9Режим частоты кадров : ПостоянныйЧастота кадров : 23,976 (24000/1001) кадра/секЦветовое пространство : YUVСубдискретизация насыщенности : 4:2:0Битовая глубина : 8 битТип развёртки : ПрогрессивнаяБит/(Пиксели*Кадры) : 0.501Размер потока : 19,9 Гбайт (62%)Заголовок : The.Net.1995.Sony.Pictures.BDRemux.1080pЯзык : EnglishDefault : ДаForced : Нет
Аудио #1Идентификатор : 2Формат : AC-3Формат/Информация : Audio Coding 3Коммерческое название : Dolby DigitalИдентификатор кодека : A_AC3Продолжительность : 1 ч. 54 м.Вид битрейта : ПостоянныйБитрейт : 384 Кбит/секКаналы : 6 каналовChannelLayout : L R C LFE Ls RsЧастота : 48,0 КГцЧастота кадров : 31,250 кадров/сек (1536 SPF)Метод сжатия : С потерямиРазмер потока : 314 Мбайт (1%)Заголовок : DubЯзык : RussianServiceKind/String : Complete MainDefault : ДаForced : Нет
Аудио #2Идентификатор : 3Формат : DTS XLLФормат/Информация : Digital Theater SystemsКоммерческое название : DTS-HD Master AudioИдентификатор кодека : A_DTSПродолжительность : 1 ч. 54 м.Вид битрейта : ПеременныйБитрейт : 4250 Кбит/секКаналы : 6 каналовChannelLayout : C L R Ls Rs LFEЧастота : 48,0 КГцЧастота кадров : 93,750 кадра/сек (512 SPF)Битовая глубина : 24 битМетод сжатия : Без потерьРазмер потока : 3,39 Гбайт (11%)Заголовок : MVO D2LabЯзык : RussianDefault : НетForced : Нет
Аудио #3Идентификатор : 4Формат : AC-3Формат/Информация : Audio Coding 3Коммерческое название : Dolby DigitalИдентификатор кодека : A_AC3Продолжительность : 1 ч. 54 м.Вид битрейта : ПостоянныйБитрейт : 384 Кбит/секКаналы : 6 каналовChannelLayout : L R C LFE Ls RsЧастота : 48,0 КГцЧастота кадров : 31,250 кадров/сек (1536 SPF)Метод сжатия : С потерямиРазмер потока : 314 Мбайт (1%)Заголовок : MVO НТВ / ВидеосервисЯзык : RussianServiceKind/String : Complete MainDefault : НетForced : Нет
Аудио #4Идентификатор : 5Формат : AC-3Формат/Информация : Audio Coding 3Коммерческое название : Dolby DigitalИдентификатор кодека : A_AC3Продолжительность : 1 ч. 54 м.Вид битрейта : ПостоянныйБитрейт : 192 Кбит/секКаналы : 2 каналаChannelLayout : L RЧастота : 48,0 КГцЧастота кадров : 31,250 кадров/сек (1536 SPF)Метод сжатия : С потерямиРазмер потока : 157 Мбайт (0%)Заголовок : MVO НТВ / ТВЦЯзык : RussianServiceKind/String : Complete MainDefault : НетForced : Нет
Аудио #5Идентификатор : 6Формат : AC-3Формат/Информация : Audio Coding 3Коммерческое название : Dolby DigitalИдентификатор кодека : A_AC3Продолжительность : 1 ч. 54 м.Вид битрейта : ПостоянныйБитрейт : 192 Кбит/секКаналы : 2 каналаChannelLayout : L RЧастота : 48,0 КГцЧастота кадров : 31,250 кадров/сек (1536 SPF)Метод сжатия : С потерямиРазмер потока : 157 Мбайт (0%)Заголовок : MVO РТРЯзык : RussianServiceKind/String : Complete MainDefault : НетForced : Нет
Аудио #6Идентификатор : 7Формат : DTS XBRФормат/Информация : Digital Theater SystemsКоммерческое название : DTS-HD High Resolution AudioИдентификатор кодека : A_DTSПродолжительность : 1 ч. 54 м.Вид битрейта : ПостоянныйБитрейт : 2046 Кбит/секКаналы : 6 каналовChannelLayout : C L R Ls Rs LFEЧастота : 48,0 КГцЧастота кадров : 93,750 кадра/сек (512 SPF)Битовая глубина : 24 битМетод сжатия : С потерямиРазмер потока : 1,63 Гбайт (5%)Заголовок : AVO Юрий ЖивовЯзык : RussianDefault : НетForced : Нет
Аудио #7Идентификатор : 8Формат : AC-3Формат/Информация : Audio Coding 3Коммерческое название : Dolby DigitalИдентификатор кодека : A_AC3Продолжительность : 1 ч. 54 м.Вид битрейта : ПостоянныйБитрейт : 192 Кбит/секКаналы : 2 каналаChannelLayout : L RЧастота : 48,0 КГцЧастота кадров : 31,250 кадров/сек (1536 SPF)Метод сжатия : С потерямиРазмер потока : 157 Мбайт (0%)Заголовок : AVO Сергей ВизгуновЯзык : RussianServiceKind/String : Complete MainDefault : НетForced : Нет
Аудио #8Идентификатор : 9Формат : DTS XBRФормат/Информация : Digital Theater SystemsКоммерческое название : DTS-HD High Resolution AudioИдентификатор кодека : A_DTSПродолжительность : 1 ч. 54 м.Вид битрейта : ПостоянныйБитрейт : 2046 Кбит/секКаналы : 6 каналовChannelLayout : C L R Ls Rs LFEЧастота : 48,0 КГцЧастота кадров : 93,750 кадра/сек (512 SPF)Битовая глубина : 24 битМетод сжатия : С потерямиРазмер потока : 1,63 Гбайт (5%)Заголовок : AVO Пётр КарцевЯзык : RussianDefault : НетForced : Нет
Аудио #9Идентификатор : 10Формат : AC-3Формат/Информация : Audio Coding 3Коммерческое название : Dolby DigitalИдентификатор кодека : A_AC3Продолжительность : 1 ч. 54 м.Вид битрейта : ПостоянныйБитрейт : 192 Кбит/секКаналы : 2 каналаChannelLayout : L RЧастота : 48,0 КГцЧастота кадров : 31,250 кадров/сек (1536 SPF)Метод сжатия : С потерямиРазмер потока : 157 Мбайт (0%)Заголовок : VO НеизвестныйЯзык : RussianServiceKind/String : Complete MainDefault : НетForced : Нет
Аудио #10Идентификатор : 11Формат : DTS XLLФормат/Информация : Digital Theater SystemsКоммерческое название : DTS-HD Master AudioИдентификатор кодека : A_DTSПродолжительность : 1 ч. 54 м.Вид битрейта : ПеременныйБитрейт : 4222 Кбит/секКаналы : 6 каналовChannelLayout : C L R Ls Rs LFEЧастота : 48,0 КГцЧастота кадров : 93,750 кадра/сек (512 SPF)Битовая глубина : 24 битМетод сжатия : Без потерьРазмер потока : 3,37 Гбайт (10%)Заголовок : OriginalЯзык : EnglishDefault : НетForced : Нет
Аудио #11Идентификатор : 12Формат : AC-3Формат/Информация : Audio Coding 3Коммерческое название : Dolby DigitalИдентификатор кодека : A_AC3Продолжительность : 1 ч. 54 м.Вид битрейта : ПостоянныйБитрейт : 192 Кбит/секКаналы : 2 каналаChannelLayout : L RЧастота : 48,0 КГцЧастота кадров : 31,250 кадров/сек (1536 SPF)Метод сжатия : С потерямиРазмер потока : 157 Мбайт (0%)Заголовок : Commentary by director Irwin Winkler and producer Rob CowanЯзык : EnglishServiceKind/String : Complete MainDefault : НетForced : Нет
Аудио #12Идентификатор : 13Формат : AC-3Формат/Информация : Audio Coding 3Коммерческое название : Dolby DigitalИдентификатор кодека : A_AC3Продолжительность : 1 ч. 54 м.Вид битрейта : ПостоянныйБитрейт : 192 Кбит/секКаналы : 2 каналаChannelLayout : L RЧастота : 48,0 КГцЧастота кадров : 31,250 кадров/сек (1536 SPF)Метод сжатия : С потерямиРазмер потока : 157 Мбайт (0%)Заголовок : Commentary by writers Michael Ferris & John BrancatoЯзык : EnglishServiceKind/String : Complete MainDefault : НетForced : Нет
Аудио #13Идентификатор : 14Формат : AC-3Формат/Информация : Audio Coding 3Коммерческое название : Dolby DigitalИдентификатор кодека : A_AC3Продолжительность : 1 ч. 54 м.Вид битрейта : ПостоянныйБитрейт : 192 Кбит/секКаналы : 2 каналаChannelLayout : L RЧастота : 48,0 КГцЧастота кадров : 31,250 кадров/сек (1536 SPF)Метод сжатия : С потерямиРазмер потока : 157 Мбайт (0%)Заголовок : VO 2Dlab Commentary by director Irwin Winkler and producer Rob CowanЯзык : RussianServiceKind/String : Complete MainDefault : НетForced : Нет
Текст #1Идентификатор : 15Формат : UTF-8Идентификатор кодека : S_TEXT/UTF8Идентификатор кодека/Информация : UTF-8 Plain TextПродолжительность : 1 ч. 50 м.Битрейт : 66 бит/секElementCount : 748Размер потока : 53,7 Кбайт (0%)Заголовок : RussianЯзык : RussianDefault : НетForced : Нет
Текст #2Идентификатор : 16Формат : UTF-8Идентификатор кодека : S_TEXT/UTF8Идентификатор кодека/Информация : UTF-8 Plain TextПродолжительность : 1 ч. 49 м.Битрейт : 62 бит/секElementCount : 1310Размер потока : 50,5 Кбайт (0%)Заголовок : English FullЯзык : EnglishDefault : НетForced : Нет
Текст #3Идентификатор : 17Формат : PGSИдентификатор кодека : S_HDMV/PGSИдентификатор кодека/Информация : Picture based subtitle format used on BDs/HD-DVDsПродолжительность : 1 ч. 49 м.Битрейт : 24,9 Кбит/секElementCount : 2100Размер потока : 19,6 Мбайт (0%)Заголовок : English FullЯзык : EnglishDefault : НетForced : Нет
Текст #4Идентификатор : 18Формат : UTF-8Идентификатор кодека : S_TEXT/UTF8Идентификатор кодека/Информация : UTF-8 Plain TextПродолжительность : 1 ч. 53 м.Битрейт : 68 бит/секElementCount : 1587Размер потока : 56,9 Кбайт (0%)Заголовок : English SDHЯзык : EnglishDefault : НетForced : Нет
Текст #5Идентификатор : 19Формат : PGSИдентификатор кодека : S_HDMV/PGSИдентификатор кодека/Информация : Picture based subtitle format used on BDs/HD-DVDsПродолжительность : 1 ч. 53 м.Битрейт : 27,7 Кбит/секElementCount : 3173Размер потока : 22,6 Мбайт (0%)Заголовок : English SDHЯзык : EnglishDefault : НетForced : Нет
Текст #6Идентификатор : 20Формат : PGSИдентификатор кодека : S_HDMV/PGSИдентификатор кодека/Информация : Picture based subtitle format used on BDs/HD-DVDsПродолжительность : 1 ч. 49 м.Битрейт : 29,3 Кбит/секElementCount : 2244Размер потока : 23,0 Мбайт (0%)Заголовок : GermanЯзык : GermanDefault : НетForced : Нет
Текст #7Идентификатор : 21Формат : PGSИдентификатор кодека : S_HDMV/PGSИдентификатор кодека/Информация : Picture based subtitle format used on BDs/HD-DVDsПродолжительность : 1 ч. 53 м.Битрейт : 21,7 Кбит/секElementCount : 2186Размер потока : 17,6 Мбайт (0%)Заголовок : FrenchЯзык : FrenchDefault : НетForced : Нет
Текст #8Идентификатор : 22Формат : PGSИдентификатор кодека : S_HDMV/PGSИдентификатор кодека/Информация : Picture based subtitle format used on BDs/HD-DVDsПродолжительность : 1 ч. 49 м.Битрейт : 23,6 Кбит/секElementCount : 2248Размер потока : 18,6 Мбайт (0%)Заголовок : Spanish (Castilian)Язык : SpanishDefault : НетForced : Нет
Текст #9Идентификатор : 23Формат : PGSИдентификатор кодека : S_HDMV/PGSИдентификатор кодека/Информация : Picture based subtitle format used on BDs/HD-DVDsПродолжительность : 1 ч. 50 м.Битрейт : 32,3 Кбит/секElementCount : 2631Размер потока : 25,4 Мбайт (0%)Заголовок : Spanish (Latin American)Язык : SpanishDefault : НетForced : Нет
Текст #10Идентификатор : 24Формат : PGSИдентификатор кодека : S_HDMV/PGSИдентификатор кодека/Информация : Picture based subtitle format used on BDs/HD-DVDsПродолжительность : 1 ч. 49 м.Битрейт : 25,7 Кбит/секElementCount : 2242Размер потока : 20,2 Мбайт (0%)Заголовок : ItalianЯзык : ItalianDefault : НетForced : Нет
Текст #11Идентификатор : 25Формат : PGSИдентификатор кодека : S_HDMV/PGSИдентификатор кодека/Информация : Picture based subtitle format used on BDs/HD-DVDsПродолжительность : 1 ч. 49 м.Битрейт : 27,2 Кбит/секElementCount : 2252Размер потока : 21,4 Мбайт (0%)Заголовок : Portuguese (Iberian)Язык : PortugueseDefault : НетForced : Нет
Текст #12Идентификатор : 26Формат : UTF-8Идентификатор кодека : S_TEXT/UTF8Идентификатор кодека/Информация : UTF-8 Plain TextПродолжительность : 1 ч. 50 м.Битрейт : 46 бит/секElementCount : 988Размер потока : 37,4 Кбайт (0%)Заголовок : Portuguese BrazilianЯзык : PortugueseDefault : НетForced : Нет
Текст #13Идентификатор : 27Формат : PGSИдентификатор кодека : S_HDMV/PGSИдентификатор кодека/Информация : Picture based subtitle format used on BDs/HD-DVDsПродолжительность : 1 ч. 49 м.Битрейт : 15,6 Кбит/секElementCount : 2216Размер потока : 12,3 Мбайт (0%)Заголовок : ArabicЯзык : ArabicDefault : НетForced : Нет
Текст #14Идентификатор : 28Формат : PGSИдентификатор кодека : S_HDMV/PGSИдентификатор кодека/Информация : Picture based subtitle format used on BDs/HD-DVDsПродолжительность : 1 ч. 50 м.Битрейт : 26,5 Кбит/секElementCount : 2222Размер потока : 20,9 Мбайт (0%)Заголовок : BulgarianЯзык : BulgarianDefault : НетForced : Нет
Текст #15Идентификатор : 29Формат : UTF-8Идентификатор кодека : S_TEXT/UTF8Идентификатор кодека/Информация : UTF-8 Plain TextПродолжительность : 1 ч. 49 м.Битрейт : 38 бит/секElementCount : 950Размер потока : 31,1 Кбайт (0%)Заголовок : BosnianЯзык : BosnianDefault : НетForced : Нет
Текст #16Идентификатор : 30Формат : PGSИдентификатор кодека : S_HDMV/PGSИдентификатор кодека/Информация : Picture based subtitle format used on BDs/HD-DVDsПродолжительность : 1 ч. 49 м.Битрейт : 25,8 Кбит/секElementCount : 2254Размер потока : 20,3 Мбайт (0%)Заголовок : HungarianЯзык : HungarianDefault : НетForced : Нет
Текст #17Идентификатор : 31Формат : UTF-8Идентификатор кодека : S_TEXT/UTF8Идентификатор кодека/Информация : UTF-8 Plain TextПродолжительность : 1 ч. 50 м.Битрейт : 72 бит/секElementCount : 1136Размер потока : 58,7 Кбайт (0%)Заголовок : VietnameseЯзык : VietnameseDefault : НетForced : Нет
Текст #18Идентификатор : 32Формат : PGSИдентификатор кодека : S_HDMV/PGSИдентификатор кодека/Информация : Picture based subtitle format used on BDs/HD-DVDsПродолжительность : 1 ч. 49 м.Битрейт : 24,2 Кбит/секElementCount : 1549Размер потока : 19,0 Мбайт (0%)Заголовок : DutchЯзык : DutchDefault : НетForced : Нет
Текст #19Идентификатор : 33Формат : PGSИдентификатор кодека : S_HDMV/PGSИдентификатор кодека/Информация : Picture based subtitle format used on BDs/HD-DVDsПродолжительность : 1 ч. 50 м.Битрейт : 25,7 Кбит/секElementCount : 2260Размер потока : 20,2 Мбайт (0%)Заголовок : GreekЯзык : GreekDefault : НетForced : Нет
Текст #20Идентификатор : 34Формат : PGSИдентификатор кодека : S_HDMV/PGSИдентификатор кодека/Информация : Picture based subtitle format used on BDs/HD-DVDsПродолжительность : 1 ч. 49 м.Битрейт : 22,8 Кбит/секElementCount : 1511Размер потока : 17,9 Мбайт (0%)Заголовок : DanishЯзык : DanishDefault : НетForced : Нет
Текст #21Идентификатор : 35Формат : PGSИдентификатор кодека : S_HDMV/PGSИдентификатор кодека/Информация : Picture based subtitle format used on BDs/HD-DVDsПродолжительность : 1 ч. 49 м.Битрейт : 18,4 Кбит/секElementCount : 2220Размер потока : 14,5 Мбайт (0%)Заголовок : HebrewЯзык : HebrewDefault : НетForced : Нет
Текст #22Идентификатор : 36Формат : UTF-8Идентификатор кодека : S_TEXT/UTF8Идентификатор кодека/Информация : UTF-8 Plain TextПродолжительность : 1 ч. 53 м.Битрейт : 60 бит/секElementCount : 1141Размер потока : 50,1 Кбайт (0%)Заголовок : IndonesianЯзык : IndonesianDefault : НетForced : Нет
Текст #23Идентификатор : 37Формат : PGSИдентификатор кодека : S_HDMV/PGSИдентификатор кодека/Информация : Picture based subtitle format used on BDs/HD-DVDsПродолжительность : 1 ч. 49 м.Битрейт : 25,5 Кбит/секElementCount : 2196Размер потока : 20,1 Мбайт (0%)Заголовок : IcelandicЯзык : IcelandicDefault : НетForced : Нет
Текст #24Идентификатор : 38Формат : UTF-8Идентификатор кодека : S_TEXT/UTF8Идентификатор кодека/Информация : UTF-8 Plain TextПродолжительность : 1 ч. 50 м.Битрейт : 48 бит/секElementCount : 1200Размер потока : 39,5 Кбайт (0%)Заголовок : Chinese SimplifiedЯзык : ChineseDefault : НетForced : Нет
Текст #25Идентификатор : 39Формат : PGSИдентификатор кодека : S_HDMV/PGSИдентификатор кодека/Информация : Picture based subtitle format used on BDs/HD-DVDsПродолжительность : 1 ч. 49 м.Битрейт : 27,7 Кбит/секElementCount : 2421Размер потока : 21,8 Мбайт (0%)Заголовок : Chinese Mandarin TraditionalЯзык : ChineseDefault : НетForced : Нет
Текст #26Идентификатор : 40Формат : PGSИдентификатор кодека : S_HDMV/PGSИдентификатор кодека/Информация : Picture based subtitle format used on BDs/HD-DVDsПродолжительность : 1 ч. 49 м.Битрейт : 21,2 Кбит/секElementCount : 2354Размер потока : 16,7 Мбайт (0%)Заголовок : KoreanЯзык : KoreanDefault : НетForced : Нет
Текст #27Идентификатор : 41Формат : PGSИдентификатор кодека : S_HDMV/PGSИдентификатор кодека/Информация : Picture based subtitle format used on BDs/HD-DVDsПродолжительность : 1 ч. 49 м.Битрейт : 22,9 Кбит/секElementCount : 1494Размер потока : 18,0 Мбайт (0%)Заголовок : NorwegianЯзык : NorwegianDefault : НетForced : Нет
Текст #28Идентификатор : 42Формат : PGSИдентификатор кодека : S_HDMV/PGSИдентификатор кодека/Информация : Picture based subtitle format used on BDs/HD-DVDsПродолжительность : 1 ч. 50 м.Битрейт : 24,8 Кбит/секElementCount : 2192Размер потока : 19,5 Мбайт (0%)Заголовок : PolishЯзык : PolishDefault : НетForced : Нет
Текст #29Идентификатор : 43Формат : UTF-8Идентификатор кодека : S_TEXT/UTF8Идентификатор кодека/Информация : UTF-8 Plain TextПродолжительность : 1 ч. 49 м.Битрейт : 41 бит/секElementCount : 756Размер потока : 33,4 Кбайт (0%)Заголовок : RomanianЯзык : RomanianDefault : НетForced : Нет
Текст #30Идентификатор : 44Формат : UTF-8Идентификатор кодека : S_TEXT/UTF8Идентификатор кодека/Информация : UTF-8 Plain TextПродолжительность : 1 ч. 50 м.Битрейт : 37 бит/секElementCount : 952Размер потока : 30,4 Кбайт (0%)Заголовок : SerbianЯзык : SerbianDefault : НетForced : Нет
Текст #31Идентификатор : 45Формат : PGSИдентификатор кодека : S_HDMV/PGSИдентификатор кодека/Информация : Picture based subtitle format used on BDs/HD-DVDsПродолжительность : 1 ч. 49 м.Битрейт : 22,6 Кбит/секElementCount : 2208Размер потока : 17,7 Мбайт (0%)Заголовок : SlovenianЯзык : SlovenianDefault : НетForced : Нет
Текст #32Идентификатор : 46Формат : PGSИдентификатор кодека : S_HDMV/PGSИдентификатор кодека/Информация : Picture based subtitle format used on BDs/HD-DVDsПродолжительность : 1 ч. 50 м.Битрейт : 25,7 Кбит/секElementCount : 2647Размер потока : 20,2 Мбайт (0%)Заголовок : ThaiЯзык : ThaiDefault : НетForced : Нет
Текст #33Идентификатор : 47Формат : PGSИдентификатор кодека : S_HDMV/PGSИдентификатор кодека/Информация : Picture based subtitle format used on BDs/HD-DVDsПродолжительность : 1 ч. 49 м.Битрейт : 27,9 Кбит/секElementCount : 2250Размер потока : 21,9 Мбайт (0%)Заголовок : TurkishЯзык : TurkishDefault : НетForced : Нет
Текст #34Идентификатор : 48Формат : UTF-8Идентификатор кодека : S_TEXT/UTF8Идентификатор кодека/Информация : UTF-8 Plain TextПродолжительность : 1 ч. 50 м.Битрейт : 65 бит/секElementCount : 749Размер потока : 53,1 Кбайт (0%)Заголовок : UkrainianЯзык : UkrainianDefault : НетForced : Нет
Текст #35Идентификатор : 49Формат : PGSИдентификатор кодека : S_HDMV/PGSИдентификатор кодека/Информация : Picture based subtitle format used on BDs/HD-DVDsПродолжительность : 1 ч. 49 м.Битрейт : 24,8 Кбит/секElementCount : 1591Размер потока : 19,5 Мбайт (0%)Заголовок : FinnishЯзык : FinnishDefault : НетForced : Нет
Текст #36Идентификатор : 50Формат : PGSИдентификатор кодека : S_HDMV/PGSИдентификатор кодека/Информация : Picture based subtitle format used on BDs/HD-DVDsПродолжительность : 1 ч. 49 м.Битрейт : 22,2 Кбит/секElementCount : 2274Размер потока : 17,4 Мбайт (0%)Заголовок : HindiЯзык : HindiDefault : НетForced : Нет
Текст #37Идентификатор : 51Формат : PGSИдентификатор кодека : S_HDMV/PGSИдентификатор кодека/Информация : Picture based subtitle format used on BDs/HD-DVDsПродолжительность : 1 ч. 49 м.Битрейт : 22,3 Кбит/секElementCount : 1942Размер потока : 17,5 Мбайт (0%)Заголовок : CroatianЯзык : CroatianDefault : НетForced : Нет
Текст #38Идентификатор : 52Формат : PGSИдентификатор кодека : S_HDMV/PGSИдентификатор кодека/Информация : Picture based subtitle format used on BDs/HD-DVDsПродолжительность : 1 ч. 50 м.Битрейт : 23,6 Кбит/секElementCount : 2220Размер потока : 18,6 Мбайт (0%)Заголовок : CzechЯзык : CzechDefault : НетForced : Нет
Текст #39Идентификатор : 53Формат : PGSИдентификатор кодека : S_HDMV/PGSИдентификатор кодека/Информация : Picture based subtitle format used on BDs/HD-DVDsПродолжительность : 1 ч. 50 м.Битрейт : 21,8 Кбит/секElementCount : 1508Размер потока : 17,1 Мбайт (0%)Заголовок : SwedishЯзык : SwedishDefault : НетForced : Нет
Текст #40Идентификатор : 54Формат : UTF-8Идентификатор кодека : S_TEXT/UTF8Идентификатор кодека/Информация : UTF-8 Plain TextПродолжительность : 1 ч. 49 м.Битрейт : 42 бит/секElementCount : 759Размер потока : 34,1 Кбайт (0%)Заголовок : EstonianЯзык : EstonianDefault : НетForced : Нет
Текст #41Идентификатор : 55Формат : PGSИдентификатор кодека : S_HDMV/PGSИдентификатор кодека/Информация : Picture based subtitle format used on BDs/HD-DVDsПродолжительность : 1 ч. 49 м.Битрейт : 20,5 Кбит/секElementCount : 2300Размер потока : 16,1 Мбайт (0%)Заголовок : JapaneseЯзык : JapaneseDefault : НетForced : Нет
Меню00:00:00.000 : en:Start00:03:32.879 : en:Angela Bennett00:10:18.201 : en:CALL ASAP DALE00:14:15.897 : en:Crash Landing00:18:36.824 : en:Jack Devlin00:24:59.289 : en:Stealing Angela's Purse00:27:31.192 : en:On Jack's Boat00:35:34.049 : en:Escape & Aftermath00:37:46.956 : en:Checked Out00:39:21.651 : en:Ruth Marx00:40:55.913 : en:House For Sale00:49:35.432 : en:Dr. Champion00:55:00.047 : en:US Naval Hospital Records00:57:22.397 : en:Calling Cyberbob00:59:58.803 : en:With Alan01:03:52.681 : en:At the Hospital01:07:59.826 : en:Greeting an Old Lover01:10:46.618 : en:Merry-Go-Round Target01:13:07.217 : en:Code Blue01:17:54.086 : en:Off-Road Chase01:19:37.898 : en:Court-appointed Attorney01:24:24.477 : en:Ben Phillips, FBI01:27:20.486 : en:Bridge Escape01:30:20.039 : en:At Cathedral Software01:36:01.422 : en:WHO IS PRAETORIAN01:41:26.080 : en:Pan Pacific Computer Convention01:45:06.301 : en:Back Room Area Shooting01:46:12.450 : en:The Right Thing01:50:45.903 : en:End Credits
Релиз группы:
--
[Profile]  [PM] 
Display posts:    
Reply to topic

Current time is: 21-Jul 21:37

All times are UTC + 2



You cannot post new topics in this forum
You cannot reply to topics in this forum
You cannot edit your posts in this forum
You cannot delete your posts in this forum
You cannot vote in polls in this forum
You cannot attach files in this forum
You cannot download files in this forum