Малыш - Каратист / The Karate Kid (Джон Дж. Эвилдсен / John G. Avildsen) [1984, США, драма, семейный, спорт, BDRemux 1080p] Dub (Варус Видео) + 3x MVO +2x AVO + Sub Rus, Eng + Original Eng

Reply to topic
 
Author
Message

Faust ®

Gender: Unknown

Longevity: 12 years

Posts: 23187

Reputation: 0 [+] [-]

Faust · Post 14-Jun-2023 10:10

[Quote] 

Малыш - Каратист / The Karate Kid---USA Transfer | Sony Pictures--- Страна: США
Студия: Columbia Pictures Corporation, Delphi II, Weintraub Productions
Жанр: драма, семейный, спорт
Год выпуска: 1984
Продолжительность: 02:06:54
Перевод: Профессиональный (дублированный) - Варус Видео
Перевод: Профессиональный (многоголосый закадровый) - Рен-ТВ
Перевод: Профессиональный (многоголосый закадровый) - GoodPeople
Перевод: Профессиональный (многоголосый закадровый)
Перевод: Авторский (одноголосый закадровый) - Василий Горчаков
Перевод: Авторский (одноголосый закадровый) - Юрий Товбин
Субтитры: русские, английские (полные, для слабослышащих, комментарии), немецкие (полные, комментарии), французские (полные, комментарии), испанские (европейские, латиноамериканские, комментарии), итальянские (полные, комментарии), португальские (европейские, бразильские, комментарии), арабские, болгарские, венгерские, вьетнамские, голландские (полные, комментарии), греческие, датские, иврит, индонезийские, исландские, каталанские, китайские (упрощённые, традиционные), корейские, норвежские, польские, румынские, сербские, словацкие, словенские, тайские, турецкие, украинские, фарси, финские, хинди, хорватские, чешские, шведские, эстонские, японские
Оригинальная аудиодорожка: английский

Режиссер: Джон Дж. Эвилдсен / John G. Avildsen
В ролях: Ральф Маччио, Пэт Морита, Элизабет Шу, Мартин Коув, Рэнди Хеллер, Уильям Забка, Рон Томас, Роб Гэррисон, Чэд МакКуин, Тони О’Делл, Исраэл Хуарбе, Уильям Бассетт, Лэрри Б. Скотт, Джули Филдс, Дэна Андерсен, Фрэнк Берт Авалон, Джефф Фишман, Кент Дейли, Том Фридли, Пэт Э. Джонсон, Брюс Мэлмат, Дэррил Видал, Фрэнсис Бэй, Кристофер Криса, Берни Каби, Джоан Леммо, Хелен Сифф, Ларри Дрэйк, Дэвид Эбботт, Молли Баслер, Брайан Дэвис, Дэвид Де Ланж, Эрик Феликс, Питер Джейсон, Тодд Лукинлэнд, Кларенс МакГи мл., Уильям Норрен, Сэм Скарбер, Скотт Стрейдер, Крис Касамасса, Том Леви, Эндрю Шу
Описание: В одной из школ Лос-Анджелеса появляется новичок — тинэйджер по имени Дэниел. Он прибыл с восточного побережья вместе со своей матерью. Нелегко завести друзей на новом месте, где ты не знаешь никого, а тем более в школе, где управляет жестокая банда каратистов. Несмотря на свой юный возраст, члены банды очень опасны. Они называют себя Кобрами и жестоко «жалят» каждого, кто им не угоден. В списки неугодных попадает и Дэниел после того, как он знакомится и заводит дружеские отношения с бывшей девушкой главаря Кобр. Кобры избивают новичка. Дэниел жаждет отмщения и в тоже время хочет произвести впечатление на свою новую девушку. Он обращается к мастеру восточных единоборств Мийаги с просьбой обучить его карате…--
Исходник - The.Karate.Kid.1984.1080p.BluRay.Remux.AVC.Atmos-PmP.mkv. Русские дорожки отсюда, отсюда, отсюда и отсюда. Спасибо Diablo, -JokeR-, dayanat76, ale_x2008, edich2, kinaman и JUSTKANT. Все дороги добавлены как есть. Обложка соответствует изданию.
--Сэмпл | Кинопоиск | IMDb
Тип релиза: BDRemux 1080p
Контейнер: MKV
Видео: 1920x1080 (16:9), 23.976 fps, 26945 kbps, AVC
Аудио 1: Russian, 48.0 KHz, AC3, 2 ch, 192 Kbps - Dub Варус Видео
Аудио 2: Russian, 48.0 KHz, AC3, 2 ch, 192 Kbps - MVO РенТВ
Аудио 3: Russian, 48.0 KHz, AC3, 6 ch, 640 Kbps - MVO GoodPeople
Аудио 4: Russian, 48.0 KHz, AC3, 2 ch, 192 Kbps - MVO
Аудио 5: Russian, 48.0 KHz, AC3, 2 ch, 192 Kbps - AVO Василий Горчаков
Аудио 6: Russian, 48.0 KHz, AC3, 2 ch, 192 Kbps - AVO Юрий Товбин
Аудио 7: English, 48.0 KHz, TrueHD, 8 ch, 3244 kbps - Original Dolby TrueHD 7.1
Аудио 8: English, 48.0 KHz, AC3, 6 ch, 640 Kbps - Original Compatibility Track 5.1
Аудио 9: English, 48.0 KHz, FLAC, 2 ch, 575 kbps - Original Stereo
Аудио 10: English, 48.0 KHz, AC3, 2 ch, 192 Kbps - Commentary by director John G. Avildsen, writer Robert Mark Kamen and actors Pat Morita and Ralph Macchio
Аудио 11: English, 48.0 KHz, DTS, 2 ch, 192 Kbps - Commentary for selected scenes (trivia and interviews)
Формат субтитров: softsub (SRT)

MediaInfo

ОбщееУникальный идентификатор                 : 200095057406669642199027628637746693443 (0x9688E801DB723B5BA0CCE7ECDB810543)Полное имя                               : X:\Уже готовые к раздачам\The.Karate.Kid.1984.Sony.Pictures.BDRemux.1080p.mkvФормат                                   : MatroskaВерсия формата                           : Version 4Размер файла                             : 30,3 ГбайтПродолжительность                        : 2 ч. 6 м.Режим общего битрейта                    : ПеременныйОбщий поток                              : 34,2 Мбит/секНазвание фильма                          : The.Karate.Kid.1984.Sony.Pictures.BDRemux.1080p_AllFilms_tekoДата кодирования                         : UTC 2023-06-12 17:06:24Программа кодирования                    : mkvmerge v9.5.0 ('Quiet Fire') 64bitБиблиотека кодирования                   : libebml v1.3.4 + libmatroska v1.4.5Обложка                                  : YesAttachments                              : The.Karate.Kid.1984.SP.BD.Front.Cover.png / The.Karate.Kid.1984.BD.Cover.jpg / The.Karate.Kid.1984.UHD.Cover.jpg / The.Karate.Kid.1984.BD.Print.1.png / The.Karate.Kid.1984.BD.Print.2.png / The.Karate.Kid.1984.BD.Print.3.png / The.Karate.Kid.1984.BD.Print.4.png / The.Karate.Kid.1984.BD.Print.5.png / The.Karate.Kid.1984.BD.Print.6.png / The.Karate.Kid.1984.DVD.Cover.jpg / The.Karate.Kid.1984.Afisha.jpg / The.Karate.Kid.1984.Art.Plakat.jpg / The.Karate.Kid.1984.Poster.jpg
ВидеоИдентификатор : 1Формат : AVCФормат/Информация : Advanced Video CodecПрофиль формата : High@L4.1Настройки формата : CABAC / 2 Ref FramesПараметр CABAC формата : ДаПараметр RefFrames формата : 2 кадраИдентификатор кодека : V_MPEG4/ISO/AVCПродолжительность : 2 ч. 6 м.Вид битрейта : ПеременныйБитрейт : 26,9 Мбит/секШирина : 1920 пикселейВысота : 1080 пикселейСоотношение сторон : 16:9Режим частоты кадров : ПостоянныйЧастота кадров : 23,976 (24000/1001) кадра/секЦветовое пространство : YUVСубдискретизация насыщенности : 4:2:0Битовая глубина : 8 битТип развёртки : ПрогрессивнаяБит/(Пиксели*Кадры) : 0.542Размер потока : 23,9 Гбайт (79%)Заголовок : The.Karate.Kid.1984.Sony.Pictures.BDRemux.1080pЯзык : EnglishDefault : ДаForced : Нет
Аудио #1Идентификатор : 2Формат : AC-3Формат/Информация : Audio Coding 3Коммерческое название : Dolby DigitalИдентификатор кодека : A_AC3Продолжительность : 2 ч. 6 м.Вид битрейта : ПостоянныйБитрейт : 192 Кбит/секКаналы : 2 каналаChannelLayout : L RЧастота : 48,0 КГцЧастота кадров : 31,250 кадров/сек (1536 SPF)Метод сжатия : С потерямиРазмер потока : 174 Мбайт (1%)Заголовок : Dub Варус ВидеоЯзык : RussianServiceKind/String : Complete MainDefault : ДаForced : Нет
Аудио #2Идентификатор : 3Формат : AC-3Формат/Информация : Audio Coding 3Коммерческое название : Dolby DigitalИдентификатор кодека : A_AC3Продолжительность : 2 ч. 6 м.Вид битрейта : ПостоянныйБитрейт : 192 Кбит/секКаналы : 2 каналаChannelLayout : L RЧастота : 48,0 КГцЧастота кадров : 31,250 кадров/сек (1536 SPF)Метод сжатия : С потерямиРазмер потока : 174 Мбайт (1%)Заголовок : MVO РенТВ (Игорь Тарадайкин, Сергей Чекан и Ирина Савина)Язык : RussianServiceKind/String : Complete MainDefault : НетForced : Нет
Аудио #3Идентификатор : 4Формат : AC-3Формат/Информация : Audio Coding 3Коммерческое название : Dolby DigitalИдентификатор кодека : A_AC3Продолжительность : 2 ч. 6 м.Вид битрейта : ПостоянныйБитрейт : 640 Кбит/секКаналы : 6 каналовChannelLayout : L R C LFE Ls RsЧастота : 48,0 КГцЧастота кадров : 31,250 кадров/сек (1536 SPF)Метод сжатия : С потерямиРазмер потока : 581 Мбайт (2%)Заголовок : MVO Good PeopleЯзык : RussianServiceKind/String : Complete MainDefault : НетForced : Нет
Аудио #4Идентификатор : 5Формат : AC-3Формат/Информация : Audio Coding 3Коммерческое название : Dolby DigitalИдентификатор кодека : A_AC3Продолжительность : 2 ч. 6 м.Вид битрейта : ПостоянныйБитрейт : 192 Кбит/секКаналы : 2 каналаChannelLayout : L RЧастота : 48,0 КГцЧастота кадров : 31,250 кадров/сек (1536 SPF)Метод сжатия : С потерямиРазмер потока : 174 Мбайт (1%)Заголовок : MVOЯзык : RussianServiceKind/String : Complete MainDefault : НетForced : Нет
Аудио #5Идентификатор : 6Формат : AC-3Формат/Информация : Audio Coding 3Коммерческое название : Dolby DigitalИдентификатор кодека : A_AC3Продолжительность : 2 ч. 6 м.Вид битрейта : ПостоянныйБитрейт : 192 Кбит/секКаналы : 2 каналаChannelLayout : L RЧастота : 48,0 КГцЧастота кадров : 31,250 кадров/сек (1536 SPF)Метод сжатия : С потерямиРазмер потока : 174 Мбайт (1%)Заголовок : AVO Василий ГорчаковЯзык : RussianServiceKind/String : Complete MainDefault : НетForced : Нет
Аудио #6Идентификатор : 7Формат : AC-3Формат/Информация : Audio Coding 3Коммерческое название : Dolby DigitalИдентификатор кодека : A_AC3Продолжительность : 2 ч. 6 м.Вид битрейта : ПостоянныйБитрейт : 192 Кбит/секКаналы : 2 каналаChannelLayout : L RЧастота : 48,0 КГцЧастота кадров : 31,250 кадров/сек (1536 SPF)Метод сжатия : С потерямиРазмер потока : 174 Мбайт (1%)Заголовок : AVO Юрий ТовбинЯзык : RussianServiceKind/String : Complete MainDefault : НетForced : Нет
Аудио #7Идентификатор : 8Формат : MLP FBA 16-chФормат/Информация : Meridian Lossless Packing FBA with 16-channel presentationКоммерческое название : Dolby TrueHD with Dolby AtmosИдентификатор кодека : A_TRUEHDПродолжительность : 2 ч. 6 м.Вид битрейта : ПеременныйБитрейт : 3244 Кбит/секМаксимальный битрейт : 4989 Кбит/секКаналы : 8 каналовChannelLayout : L R C LFE Ls Rs Lb RbЧастота : 48,0 КГцЧастота кадров : 1200,000 кадров/сек (40 SPF)Метод сжатия : Без потерьРазмер потока : 2,88 Гбайт (9%)Заголовок : Original Dolby TrueHD 7.1Язык : EnglishDefault : НетForced : НетNumberOfDynamicObjects : 11BedChannelCount/String : 1 каналBedChannelConfiguration : LFE
Аудио #8Идентификатор : 9Формат : AC-3Формат/Информация : Audio Coding 3Коммерческое название : Dolby DigitalИдентификатор кодека : A_AC3Продолжительность : 2 ч. 6 м.Вид битрейта : ПостоянныйБитрейт : 640 Кбит/секКаналы : 6 каналовChannelLayout : L R C LFE Ls RsЧастота : 48,0 КГцЧастота кадров : 31,250 кадров/сек (1536 SPF)Метод сжатия : С потерямиРазмер потока : 581 Мбайт (2%)Заголовок : Original Compatibility Track 5.1Язык : EnglishServiceKind/String : Complete MainDefault : НетForced : Нет
Аудио #9Идентификатор : 10Формат : FLACФормат/Информация : Free Lossless Audio CodecИдентификатор кодека : A_FLACПродолжительность : 2 ч. 6 м.Вид битрейта : ПеременныйБитрейт : 575 Кбит/секКаналы : 2 каналаChannelLayout : L RЧастота : 48,0 КГцЧастота кадров : 11,719 кадров/сек (4096 SPF)Битовая глубина : 16 битМетод сжатия : Без потерьРазмер потока : 522 Мбайт (2%)Заголовок : Original StereoБиблиотека кодирования : libFLAC 1.2.1 (UTC 2007-09-17)Язык : EnglishDefault : НетForced : Нет
Аудио #10Идентификатор : 11Формат : AC-3Формат/Информация : Audio Coding 3Коммерческое название : Dolby DigitalИдентификатор кодека : A_AC3Продолжительность : 2 ч. 6 м.Вид битрейта : ПостоянныйБитрейт : 192 Кбит/секКаналы : 2 каналаChannelLayout : L RЧастота : 48,0 КГцЧастота кадров : 31,250 кадров/сек (1536 SPF)Метод сжатия : С потерямиРазмер потока : 174 Мбайт (1%)Заголовок : Commentary by director John G. Avildsen, writer Robert Mark Kamen and actors Pat Morita and Ralph MacchioЯзык : EnglishServiceKind/String : Complete MainDefault : НетForced : Нет
Аудио #11Идентификатор : 12Формат : DTS LBRФормат/Информация : Digital Theater SystemsКоммерческое название : DTS ExpressИдентификатор кодека : A_DTSПродолжительность : 2 ч. 6 м.Вид битрейта : ПостоянныйБитрейт : 192 Кбит/секКаналы : 2 каналаChannelLayout : L RЧастота : 48,0 КГцЧастота кадров : 11,719 кадров/сек (4096 SPF)Битовая глубина : 24 битМетод сжатия : С потерямиРазмер потока : 174 Мбайт (1%)Заголовок : Commentary for selected scenes (trivia and interviews)Язык : EnglishDefault : НетForced : Нет
Текст #1Идентификатор : 13Формат : UTF-8Идентификатор кодека : S_TEXT/UTF8Идентификатор кодека/Информация : UTF-8 Plain TextПродолжительность : 2 ч. 6 м.Битрейт : 79 бит/секElementCount : 1345Размер потока : 73,5 Кбайт (0%)Заголовок : Russian by Анжелика АмромЯзык : RussianDefault : НетForced : Нет
Текст #2Идентификатор : 14Формат : UTF-8Идентификатор кодека : S_TEXT/UTF8Идентификатор кодека/Информация : UTF-8 Plain TextПродолжительность : 2 ч. 2 м.Битрейт : 47 бит/секElementCount : 1357Размер потока : 42,4 Кбайт (0%)Заголовок : English FullЯзык : EnglishDefault : НетForced : Нет
Текст #3Идентификатор : 15Формат : UTF-8Идентификатор кодека : S_TEXT/UTF8Идентификатор кодека/Информация : UTF-8 Plain TextПродолжительность : 2 ч. 6 м.Битрейт : 60 бит/секElementCount : 2133Размер потока : 55,9 Кбайт (0%)Заголовок : English SDHЯзык : EnglishDefault : НетForced : Нет
Текст #4Идентификатор : 16Формат : UTF-8Идентификатор кодека : S_TEXT/UTF8Идентификатор кодека/Информация : UTF-8 Plain TextПродолжительность : 2 ч. 6 м.Битрейт : 65 бит/секElementCount : 2412Размер потока : 60,4 Кбайт (0%)Заголовок : English SDHЯзык : EnglishDefault : НетForced : Нет
Текст #5Идентификатор : 17Формат : PGSИдентификатор кодека : S_HDMV/PGSИдентификатор кодека/Информация : Picture based subtitle format used on BDs/HD-DVDsПродолжительность : 2 ч. 6 м.Битрейт : 63,6 Кбит/секElementCount : 4421Размер потока : 57,6 Мбайт (0%)Заголовок : Commentary by director John G. Avildsen, writer Robert Mark Kamen and actors Pat Morita and Ralph MacchioЯзык : EnglishDefault : НетForced : Нет
Текст #6Идентификатор : 18Формат : PGSИдентификатор кодека : S_HDMV/PGSИдентификатор кодека/Информация : Picture based subtitle format used on BDs/HD-DVDsПродолжительность : 2 ч. 3 м.Битрейт : 53,3 Кбит/секElementCount : 3353Размер потока : 47,0 Мбайт (0%)Заголовок : Commentary for selected scenes (trivia and interviews)Язык : EnglishDefault : НетForced : Нет
Текст #7Идентификатор : 19Формат : UTF-8Идентификатор кодека : S_TEXT/UTF8Идентификатор кодека/Информация : UTF-8 Plain TextПродолжительность : 2 ч. 2 м.Битрейт : 44 бит/секElementCount : 1228Размер потока : 39,4 Кбайт (0%)Заголовок : GermanЯзык : GermanDefault : НетForced : Нет
Текст #8Идентификатор : 20Формат : PGSИдентификатор кодека : S_HDMV/PGSИдентификатор кодека/Информация : Picture based subtitle format used on BDs/HD-DVDsПродолжительность : 2 ч. 6 м.Битрейт : 71,3 Кбит/секElementCount : 4425Размер потока : 64,5 Мбайт (0%)Заголовок : Commentary by director John G. Avildsen, writer Robert Mark Kamen and actors Pat Morita and Ralph MacchioЯзык : GermanDefault : НетForced : Нет
Текст #9Идентификатор : 21Формат : PGSИдентификатор кодека : S_HDMV/PGSИдентификатор кодека/Информация : Picture based subtitle format used on BDs/HD-DVDsПродолжительность : 2 ч. 3 м.Битрейт : 29,5 Кбит/секElementCount : 1632Размер потока : 26,0 Мбайт (0%)Заголовок : Commentary for selected scenes (trivia and interviews)Язык : GermanDefault : НетForced : Нет
Текст #10Идентификатор : 22Формат : UTF-8Идентификатор кодека : S_TEXT/UTF8Идентификатор кодека/Информация : UTF-8 Plain TextПродолжительность : 2 ч. 2 м.Битрейт : 39 бит/секElementCount : 1482Размер потока : 35,5 Кбайт (0%)Заголовок : FrenchЯзык : FrenchDefault : НетForced : Нет
Текст #11Идентификатор : 23Формат : PGSИдентификатор кодека : S_HDMV/PGSИдентификатор кодека/Информация : Picture based subtitle format used on BDs/HD-DVDsПродолжительность : 2 ч. 6 м.Битрейт : 59,8 Кбит/секElementCount : 4427Размер потока : 54,1 Мбайт (0%)Заголовок : Commentary by director John G. Avildsen, writer Robert Mark Kamen and actors Pat Morita and Ralph MacchioЯзык : FrenchDefault : НетForced : Нет
Текст #12Идентификатор : 24Формат : PGSИдентификатор кодека : S_HDMV/PGSИдентификатор кодека/Информация : Picture based subtitle format used on BDs/HD-DVDsПродолжительность : 2 ч. 3 м.Битрейт : 27,4 Кбит/секElementCount : 1658Размер потока : 24,2 Мбайт (0%)Заголовок : Commentary for selected scenes (trivia and interviews)Язык : FrenchDefault : НетForced : Нет
Текст #13Идентификатор : 25Формат : PGSИдентификатор кодека : S_HDMV/PGSИдентификатор кодека/Информация : Picture based subtitle format used on BDs/HD-DVDsПродолжительность : 2 ч. 2 м.Битрейт : 27,0 Кбит/секElementCount : 2433Размер потока : 23,7 Мбайт (0%)Заголовок : Spanish CastilianЯзык : SpanishDefault : НетForced : Нет
Текст #14Идентификатор : 26Формат : PGSИдентификатор кодека : S_HDMV/PGSИдентификатор кодека/Информация : Picture based subtitle format used on BDs/HD-DVDsПродолжительность : 2 ч. 2 м.Битрейт : 33,7 Кбит/секElementCount : 2728Размер потока : 29,5 Мбайт (0%)Заголовок : Spanish Latin AmericanЯзык : SpanishDefault : НетForced : Нет
Текст #15Идентификатор : 27Формат : PGSИдентификатор кодека : S_HDMV/PGSИдентификатор кодека/Информация : Picture based subtitle format used on BDs/HD-DVDsПродолжительность : 2 ч. 6 м.Битрейт : 62,1 Кбит/секElementCount : 4427Размер потока : 56,2 Мбайт (0%)Заголовок : Commentary by director John G. Avildsen, writer Robert Mark Kamen and actors Pat Morita and Ralph Macchio (Latin American)Язык : SpanishDefault : НетForced : Нет
Текст #16Идентификатор : 28Формат : PGSИдентификатор кодека : S_HDMV/PGSИдентификатор кодека/Информация : Picture based subtitle format used on BDs/HD-DVDsПродолжительность : 2 ч. 3 м.Битрейт : 27,1 Кбит/секElementCount : 1636Размер потока : 23,9 Мбайт (0%)Заголовок : Commentary for selected scenes (trivia and interviews)Язык : SpanishDefault : НетForced : Нет
Текст #17Идентификатор : 29Формат : UTF-8Идентификатор кодека : S_TEXT/UTF8Идентификатор кодека/Информация : UTF-8 Plain TextПродолжительность : 2 ч. 2 м.Битрейт : 43 бит/секElementCount : 1265Размер потока : 38,9 Кбайт (0%)Заголовок : ItalianЯзык : ItalianDefault : НетForced : Нет
Текст #18Идентификатор : 30Формат : PGSИдентификатор кодека : S_HDMV/PGSИдентификатор кодека/Информация : Picture based subtitle format used on BDs/HD-DVDsПродолжительность : 2 ч. 6 м.Битрейт : 58,4 Кбит/секElementCount : 4425Размер потока : 52,9 Мбайт (0%)Заголовок : Commentary by director John G. Avildsen, writer Robert Mark Kamen and actors Pat Morita and Ralph MacchioЯзык : ItalianDefault : НетForced : Нет
Текст #19Идентификатор : 31Формат : PGSИдентификатор кодека : S_HDMV/PGSИдентификатор кодека/Информация : Picture based subtitle format used on BDs/HD-DVDsПродолжительность : 2 ч. 3 м.Битрейт : 28,9 Кбит/секElementCount : 1640Размер потока : 25,5 Мбайт (0%)Заголовок : Commentary for selected scenes (trivia and interviews)Язык : ItalianDefault : НетForced : Нет
Текст #20Идентификатор : 32Формат : UTF-8Идентификатор кодека : S_TEXT/UTF8Идентификатор кодека/Информация : UTF-8 Plain TextПродолжительность : 2 ч. 6 м.Битрейт : 42 бит/секElementCount : 1294Размер потока : 39,0 Кбайт (0%)Заголовок : Portuguese IberianЯзык : PortugueseDefault : НетForced : Нет
Текст #21Идентификатор : 33Формат : UTF-8Идентификатор кодека : S_TEXT/UTF8Идентификатор кодека/Информация : UTF-8 Plain TextПродолжительность : 2 ч. 2 м.Битрейт : 42 бит/секElementCount : 1273Размер потока : 38,2 Кбайт (0%)Заголовок : Portuguese BrazilianЯзык : PortugueseDefault : НетForced : Нет
Текст #22Идентификатор : 34Формат : PGSИдентификатор кодека : S_HDMV/PGSИдентификатор кодека/Информация : Picture based subtitle format used on BDs/HD-DVDsПродолжительность : 2 ч. 6 м.Битрейт : 56,7 Кбит/секElementCount : 4425Размер потока : 51,3 Мбайт (0%)Заголовок : Commentary by director John G. Avildsen, writer Robert Mark Kamen and actors Pat Morita and Ralph MacchioЯзык : PortugueseDefault : НетForced : Нет
Текст #23Идентификатор : 35Формат : PGSИдентификатор кодека : S_HDMV/PGSИдентификатор кодека/Информация : Picture based subtitle format used on BDs/HD-DVDsПродолжительность : 2 ч. 3 м.Битрейт : 26,3 Кбит/секElementCount : 1628Размер потока : 23,2 Мбайт (0%)Заголовок : Commentary for selected scenes (trivia and interviews)Язык : PortugueseDefault : НетForced : Нет
Текст #24Идентификатор : 36Формат : UTF-8Идентификатор кодека : S_TEXT/UTF8Идентификатор кодека/Информация : UTF-8 Plain TextПродолжительность : 2 ч. 6 м.Битрейт : 84 бит/секElementCount : 1789Размер потока : 78,3 Кбайт (0%)Заголовок : ArabicЯзык : ArabicDefault : НетForced : Нет
Текст #25Идентификатор : 37Формат : UTF-8Идентификатор кодека : S_TEXT/UTF8Идентификатор кодека/Информация : UTF-8 Plain TextПродолжительность : 2 ч. 2 м.Битрейт : 74 бит/секElementCount : 1083Размер потока : 67,1 Кбайт (0%)Заголовок : BulgarianЯзык : BulgarianDefault : НетForced : Нет
Текст #26Идентификатор : 38Формат : UTF-8Идентификатор кодека : S_TEXT/UTF8Идентификатор кодека/Информация : UTF-8 Plain TextПродолжительность : 2 ч. 6 м.Битрейт : 41 бит/секElementCount : 1319Размер потока : 38,4 Кбайт (0%)Заголовок : HungarianЯзык : HungarianDefault : НетForced : Нет
Текст #27Идентификатор : 39Формат : UTF-8Идентификатор кодека : S_TEXT/UTF8Идентификатор кодека/Информация : UTF-8 Plain TextПродолжительность : 2 ч. 2 м.Битрейт : 62 бит/секElementCount : 1355Размер потока : 55,8 Кбайт (0%)Заголовок : VietnameseЯзык : VietnameseDefault : НетForced : Нет
Текст #28Идентификатор : 40Формат : UTF-8Идентификатор кодека : S_TEXT/UTF8Идентификатор кодека/Информация : UTF-8 Plain TextПродолжительность : 2 ч. 2 м.Битрейт : 40 бит/секElementCount : 1256Размер потока : 36,5 Кбайт (0%)Заголовок : DutchЯзык : DutchDefault : НетForced : Нет
Текст #29Идентификатор : 41Формат : PGSИдентификатор кодека : S_HDMV/PGSИдентификатор кодека/Информация : Picture based subtitle format used on BDs/HD-DVDsПродолжительность : 2 ч. 6 м.Битрейт : 58,9 Кбит/секElementCount : 4421Размер потока : 53,3 Мбайт (0%)Заголовок : Commentary by director John G. Avildsen, writer Robert Mark Kamen and actors Pat Morita and Ralph MacchioЯзык : DutchDefault : НетForced : Нет
Текст #30Идентификатор : 42Формат : UTF-8Идентификатор кодека : S_TEXT/UTF8Идентификатор кодека/Информация : UTF-8 Plain TextПродолжительность : 2 ч. 6 м.Битрейт : 76 бит/секElementCount : 1341Размер потока : 70,9 Кбайт (0%)Заголовок : GreekЯзык : GreekDefault : НетForced : Нет
Текст #31Идентификатор : 43Формат : UTF-8Идентификатор кодека : S_TEXT/UTF8Идентификатор кодека/Информация : UTF-8 Plain TextПродолжительность : 2 ч. 5 м.Битрейт : 39 бит/секElementCount : 1296Размер потока : 36,8 Кбайт (0%)Заголовок : DanishЯзык : DanishDefault : НетForced : Нет
Текст #32Идентификатор : 44Формат : UTF-8Идентификатор кодека : S_TEXT/UTF8Идентификатор кодека/Информация : UTF-8 Plain TextПродолжительность : 2 ч. 6 м.Битрейт : 67 бит/секElementCount : 1417Размер потока : 62,4 Кбайт (0%)Заголовок : HebrewЯзык : HebrewDefault : НетForced : Нет
Текст #33Идентификатор : 45Формат : UTF-8Идентификатор кодека : S_TEXT/UTF8Идентификатор кодека/Информация : UTF-8 Plain TextПродолжительность : 2 ч. 6 м.Битрейт : 48 бит/секElementCount : 1345Размер потока : 45,1 Кбайт (0%)Заголовок : IndonesianЯзык : IndonesianDefault : НетForced : Нет
Текст #34Идентификатор : 46Формат : UTF-8Идентификатор кодека : S_TEXT/UTF8Идентификатор кодека/Информация : UTF-8 Plain TextПродолжительность : 2 ч. 2 м.Битрейт : 45 бит/секElementCount : 1273Размер потока : 40,8 Кбайт (0%)Заголовок : IcelandicЯзык : IcelandicDefault : НетForced : Нет
Текст #35Идентификатор : 47Формат : UTF-8Идентификатор кодека : S_TEXT/UTF8Идентификатор кодека/Информация : UTF-8 Plain TextПродолжительность : 2 ч. 2 м.Битрейт : 42 бит/секElementCount : 1285Размер потока : 38,1 Кбайт (0%)Заголовок : CatalanЯзык : CatalanDefault : НетForced : Нет
Текст #36Идентификатор : 48Формат : UTF-8Идентификатор кодека : S_TEXT/UTF8Идентификатор кодека/Информация : UTF-8 Plain TextПродолжительность : 2 ч. 2 м.Битрейт : 45 бит/секElementCount : 1342Размер потока : 40,7 Кбайт (0%)Заголовок : Chinese SimplifiedЯзык : ChineseDefault : НетForced : Нет
Текст #37Идентификатор : 49Формат : UTF-8Идентификатор кодека : S_TEXT/UTF8Идентификатор кодека/Информация : UTF-8 Plain TextПродолжительность : 2 ч. 2 м.Битрейт : 45 бит/секElementCount : 1342Размер потока : 40,7 Кбайт (0%)Заголовок : Chinese TraditionalЯзык : ChineseDefault : НетForced : Нет
Текст #38Идентификатор : 50Формат : UTF-8Идентификатор кодека : S_TEXT/UTF8Идентификатор кодека/Информация : UTF-8 Plain TextПродолжительность : 2 ч. 6 м.Битрейт : 47 бит/секElementCount : 1354Размер потока : 43,8 Кбайт (0%)Заголовок : KoreanЯзык : KoreanDefault : НетForced : Нет
Текст #39Идентификатор : 51Формат : UTF-8Идентификатор кодека : S_TEXT/UTF8Идентификатор кодека/Информация : UTF-8 Plain TextПродолжительность : 2 ч. 2 м.Битрейт : 38 бит/секElementCount : 1232Размер потока : 34,5 Кбайт (0%)Заголовок : NorwegianЯзык : NorwegianDefault : НетForced : Нет
Текст #40Идентификатор : 52Формат : UTF-8Идентификатор кодека : S_TEXT/UTF8Идентификатор кодека/Информация : UTF-8 Plain TextПродолжительность : 2 ч. 2 м.Битрейт : 49 бит/секElementCount : 1458Размер потока : 44,8 Кбайт (0%)Заголовок : PolishЯзык : PolishDefault : НетForced : Нет
Текст #41Идентификатор : 53Формат : UTF-8Идентификатор кодека : S_TEXT/UTF8Идентификатор кодека/Информация : UTF-8 Plain TextПродолжительность : 2 ч. 2 м.Битрейт : 46 бит/секElementCount : 1458Размер потока : 41,6 Кбайт (0%)Заголовок : RomanianЯзык : RomanianDefault : НетForced : Нет
Текст #42Идентификатор : 54Формат : UTF-8Идентификатор кодека : S_TEXT/UTF8Идентификатор кодека/Информация : UTF-8 Plain TextПродолжительность : 2 ч. 2 м.Битрейт : 37 бит/секElementCount : 1078Размер потока : 33,1 Кбайт (0%)Заголовок : SerbianЯзык : SerbianDefault : НетForced : Нет
Текст #43Идентификатор : 55Формат : UTF-8Идентификатор кодека : S_TEXT/UTF8Идентификатор кодека/Информация : UTF-8 Plain TextПродолжительность : 2 ч. 2 м.Битрейт : 40 бит/секElementCount : 1272Размер потока : 36,5 Кбайт (0%)Заголовок : SlovakЯзык : SlovakDefault : НетForced : Нет
Текст #44Идентификатор : 56Формат : UTF-8Идентификатор кодека : S_TEXT/UTF8Идентификатор кодека/Информация : UTF-8 Plain TextПродолжительность : 2 ч. 2 м.Битрейт : 43 бит/секElementCount : 1457Размер потока : 39,3 Кбайт (0%)Заголовок : SlovenianЯзык : SlovenianDefault : НетForced : Нет
Текст #45Идентификатор : 57Формат : UTF-8Идентификатор кодека : S_TEXT/UTF8Идентификатор кодека/Информация : UTF-8 Plain TextПродолжительность : 2 ч. 6 м.Битрейт : 109 бит/секElementCount : 1345Размер потока : 101 Кбайт (0%)Заголовок : ThaiЯзык : ThaiDefault : НетForced : Нет
Текст #46Идентификатор : 58Формат : UTF-8Идентификатор кодека : S_TEXT/UTF8Идентификатор кодека/Информация : UTF-8 Plain TextПродолжительность : 2 ч. 6 м.Битрейт : 35 бит/секElementCount : 1263Размер потока : 33,3 Кбайт (0%)Заголовок : TurkishЯзык : TurkishDefault : НетForced : Нет
Текст #47Идентификатор : 59Формат : UTF-8Идентификатор кодека : S_TEXT/UTF8Идентификатор кодека/Информация : UTF-8 Plain TextПродолжительность : 2 ч. 6 м.Битрейт : 88 бит/секElementCount : 1817Размер потока : 82,2 Кбайт (0%)Заголовок : UkrainianЯзык : UkrainianDefault : НетForced : Нет
Текст #48Идентификатор : 60Формат : UTF-8Идентификатор кодека : S_TEXT/UTF8Идентификатор кодека/Информация : UTF-8 Plain TextПродолжительность : 2 ч. 2 м.Битрейт : 89 бит/секElementCount : 1468Размер потока : 80,2 Кбайт (0%)Заголовок : PersianЯзык : PersianDefault : НетForced : Нет
Текст #49Идентификатор : 61Формат : UTF-8Идентификатор кодека : S_TEXT/UTF8Идентификатор кодека/Информация : UTF-8 Plain TextПродолжительность : 2 ч. 2 м.Битрейт : 37 бит/секElementCount : 1260Размер потока : 33,9 Кбайт (0%)Заголовок : FinnishЯзык : FinnishDefault : НетForced : Нет
Текст #50Идентификатор : 62Формат : UTF-8Идентификатор кодека : S_TEXT/UTF8Идентификатор кодека/Информация : UTF-8 Plain TextПродолжительность : 2 ч. 6 м.Битрейт : 114 бит/секElementCount : 1348Размер потока : 106 Кбайт (0%)Заголовок : HindiЯзык : HindiDefault : НетForced : Нет
Текст #51Идентификатор : 63Формат : UTF-8Идентификатор кодека : S_TEXT/UTF8Идентификатор кодека/Информация : UTF-8 Plain TextПродолжительность : 2 ч. 2 м.Битрейт : 36 бит/секElementCount : 1079Размер потока : 32,6 Кбайт (0%)Заголовок : CroatianЯзык : CroatianDefault : НетForced : Нет
Текст #52Идентификатор : 64Формат : UTF-8Идентификатор кодека : S_TEXT/UTF8Идентификатор кодека/Информация : UTF-8 Plain TextПродолжительность : 2 ч. 2 м.Битрейт : 40 бит/секElementCount : 1272Размер потока : 36,5 Кбайт (0%)Заголовок : CzechЯзык : CzechDefault : НетForced : Нет
Текст #53Идентификатор : 65Формат : UTF-8Идентификатор кодека : S_TEXT/UTF8Идентификатор кодека/Информация : UTF-8 Plain TextПродолжительность : 2 ч. 5 м.Битрейт : 34 бит/секElementCount : 1301Размер потока : 32,2 Кбайт (0%)Заголовок : SwedishЯзык : SwedishDefault : НетForced : Нет
Текст #54Идентификатор : 66Формат : UTF-8Идентификатор кодека : S_TEXT/UTF8Идентификатор кодека/Информация : UTF-8 Plain TextПродолжительность : 2 ч. 2 м.Битрейт : 39 бит/секElementCount : 1317Размер потока : 35,1 Кбайт (0%)Заголовок : EstonianЯзык : EstonianDefault : НетForced : Нет
Текст #55Идентификатор : 67Формат : UTF-8Идентификатор кодека : S_TEXT/UTF8Идентификатор кодека/Информация : UTF-8 Plain TextПродолжительность : 2 ч. 2 м.Битрейт : 32 бит/секElementCount : 1374Размер потока : 29,0 Кбайт (0%)Заголовок : JapaneseЯзык : JapaneseDefault : НетForced : Нет
Меню00:00:00.000 : en:Start00:08:57.870 : en:Beach Party00:16:02.753 : en:Soccer Trials00:21:52.894 : en:Karate School00:27:59.969 : en:Dealing With It00:35:32.171 : en:Halloween Dance00:39:39.043 : en:No Mercy00:52:43.952 : en:Training Begins01:00:06.185 : en:Ali's Encino Home01:09:57.651 : en:Painting the Fence01:18:04.596 : en:"Learn Balance"01:26:53.041 : en:Anniversary01:33:12.628 : en:Solo Practice01:41:02.139 : en:Apology Accepted01:48:30.378 : en:Competition Begins01:57:58.488 : en:Daniel vs. Johnny
Релиз группы:
--
[Profile]  [PM] 
Display posts:    
Reply to topic

Current time is: 20-Jul 02:39

All times are UTC + 2



You cannot post new topics in this forum
You cannot reply to topics in this forum
You cannot edit your posts in this forum
You cannot delete your posts in this forum
You cannot vote in polls in this forum
You cannot attach files in this forum
You cannot download files in this forum