Вестерн по-французски / Western (Мануэль Пуарье / Manuel Poirier) [1997, Франция, мелодрама, комедия, WEB-DL 1080p] MVO + Original Fra

Reply to topic
 
Author
Message

Faust ®

Gender: Unknown

Longevity: 12 years

Posts: 23187

Reputation: 0 [+] [-]

Faust · Post 14-Jun-2023 10:10

[Quote] 

Вестерн по-французски / Western
Страна: Франция
Жанр: мелодрама, комедия
Год выпуска: 1997
Продолжительность: 02:08:28
Перевод: Профессиональный (многоголосый закадровый)
Субтитры: нет
Оригинальная аудиодорожка: французский
Режиссер: Мануэль Пурье / Manuel Poirier
В ролях: Серхи Лопес, Саша Бурдо, Элизабет Витали, Мари Матерон, Базиль Сиекуа, Мелани Лерай
Описание: Каталонец Пако - коммивояжёр. Он подсаживает к себе в машину русского автостопщика Нино и тот угоняет машину Пако вместе с товаром. Неудачливого торговца увольняют. Скоро он встречает на улице Нино и, догнав его, избивает, отправляя на больничную койку. Этот случай странным образом сближает мужчин и они отправляются в совместное путешествие по французской провинции.
Сэмпл: https://disk.yandex.ru/i/ud6ULsxt3YzB3A
Тип релиза: WEB-DL 1080p
Контейнер: MKV
Видео: AVC, 1920Х1080, 16:9, 25.000 fps, 4500 Kbps
Аудио 1: русский, A_AC3, 48,0 KHz, 192 Kbps, 2 ch (L R)
Аудио 2: французский, E-AC-3, 48,0 KHz, 384 Kbps, 2 ch (L R)

MediaInfo

ОбщееУникальный идентификатор                 : 177669279174296859366226387207549327995 (0x85A9DBC663F1C2582EFADF682B839A7B)Полное имя                               : D:\Users\Home\Desktop\раздачи\Вестерн по-французски\Western.1997.FRENCH.1080p.WEB.H264.mkvФормат                                   : MatroskaВерсия формата                           : Version 4Размер файла                             : 4,55 ГбайтПродолжительность                        : 2 ч. 8 м.Режим общего битрейта                    : ПостоянныйОбщий поток                              : 5 070 Кбит/секДата кодирования                         : UTC 2023-06-12 13:17:16Программа кодирования                    : mkvmerge v45.0.0 ('Heaven in Pennies') 64-bitБиблиотека кодирования                   : libebml v1.3.10 + libmatroska v1.5.2
ВидеоИдентификатор : 1Формат : AVCФормат/Информация : Advanced Video CodecПрофиль формата : High@L4.1Настройки формата : CABAC / 2 Ref FramesПараметр CABAC формата : ДаПараметр RefFrames формата : 2 кадраПараметр GOP формата : M=1, N=50Идентификатор кодека : V_MPEG4/ISO/AVCПродолжительность : 2 ч. 8 м.Вид битрейта : ПостоянныйБитрейт : 4 500 Кбит/секШирина : 1 920 пикселейВысота : 1 080 пикселейСоотношение сторон : 16:9Режим частоты кадров : ПостоянныйЧастота кадров : 25,000 кадров/секЦветовое пространство : YUVСубдискретизация насыщенности : 4:2:0Битовая глубина : 8 битТип развёртки : ПрогрессивнаяБит/(Пиксели*Кадры) : 0.087Размер потока : 4,03 Гбайт (89%)Default : ДаForced : НетЦветовой диапазон : LimitedОсновные цвета : BT.709Характеристики трансфера : BT.709Коэффициенты матрицы : BT.709
Аудио #1Идентификатор : 2Формат : AC-3Формат/Информация : Audio Coding 3Коммерческое название : Dolby DigitalИдентификатор кодека : A_AC3Продолжительность : 2 ч. 8 м.Вид битрейта : ПостоянныйБитрейт : 192 Кбит/секКаналы : 2 каналаChannel layout : L RЧастота : 48,0 КГцЧастота кадров : 31,250 кадров/сек (1536 SPF)Метод сжатия : С потерямиРазмер потока : 176 Мбайт (4%)Язык : RussianService kind : Complete MainDefault : ДаForced : Нет
Аудио #2Идентификатор : 3Формат : E-AC-3Формат/Информация : Enhanced AC-3Коммерческое название : Dolby Digital PlusИдентификатор кодека : A_EAC3Продолжительность : 2 ч. 8 м.Вид битрейта : ПостоянныйБитрейт : 384 Кбит/секКаналы : 2 каналаChannel layout : L RЧастота : 48,0 КГцЧастота кадров : 31,250 кадров/сек (1536 SPF)Метод сжатия : С потерямиРазмер потока : 353 Мбайт (8%)Заголовок : FrenchЯзык : FrenchService kind : Complete MainDefault : НетForced : Нет

Скриншот c названием фильма

[Profile]  [PM] 
Display posts:    
Reply to topic

Current time is: 20-Jul 02:38

All times are UTC + 2



You cannot post new topics in this forum
You cannot reply to topics in this forum
You cannot edit your posts in this forum
You cannot delete your posts in this forum
You cannot vote in polls in this forum
You cannot attach files in this forum
You cannot download files in this forum