15 минут славы / 15 minutes (Джон Херцфелд / John Herzfeld) [2001, США, Германия, драма, триллер, BDRemux 1080p] [USA Transfer] Dub (iTunes) + 3x MVO (Карусель, R5) + 2x DVO (Garsu Pasaulis) + 2x AVO (Живов, Дольский) + Original Eng + Sub (Rus, Eng)

Reply to topic
 
Author
Message

Faust ®

Gender: Unknown

Longevity: 12 years

Posts: 23187

Reputation: 0 [+] [-]

Faust · Post 14-Jun-2023 10:10

[Quote] 

15 минут славы / 15 minutes
Год выпуска: 2001
Страна: США, Германия
Жанр: драма, триллер
Продолжительность: 02:00:42
Перевод 1: Профессиональный (дублированный)..........................Мосфильм / iTunes
Перевод 2: Профессиональный (многоголосый закадровый)........Карусель
Перевод 3: Профессиональный (многоголосый закадровый)........R5
Перевод 4: Профессиональный (многоголосый закадровый)
Перевод 5: Профессиональный (двухголосый закадровый)..........Garsu Pasaulis
Перевод 6: Профессиональный (двухголосый закадровый)
Перевод 7: Авторский (одноголосый закадровый)..........................Юрий Живов
Перевод 8: Авторский (одноголосый закадровый)..........................Андрей Дольский
Оригинальная аудиодорожка: английский
Cубтитры: русские (full), английские (full, SDH, SDH colored)
Режиссер: Джон Херцфелд / John Herzfeld
В ролях: Роберт Де Ниро, Эдвард Бёрнс, Келси Грэммер, Эйвери Брукс, Мелина Канакаридис, Карел Роден, Олег Тактаров, Вера Фармига, Джон ДиРеста, Джеймс Хэнди, Дариус МакКрэри, Брюс Катлер, Шарлиз Терон, Ким Кэтролл, Дэвид Алан Грир, Владимир Машков
Описание: Эмиль и Олег, приехав в Нью-Йорк по своим бандитским делам, воруют видеокамеру, и начинают снимать свои криминальные похождения. Очень скоро они переходят от незначительных преступлений к поражающим своей жестокостью убийствам. Желая продемонстрировать свои «подвиги» наибольшему количеству зрителей, они продают видеозаписи на телевидение. Передача, которая решилась пустить это в эфир, моментально становится самой высоко рейтинговой, а наши герои новыми звездами экрана. Но полицейские тоже смотрят телевизор, и тоже не прочь прославиться на всю Америку, пристрелив убийц в прямом эфире...-imdb | kinopoisk | Сэмпл-Исходный BDRemux - от sovsem-neduhoven.-Качество: BDRemux 1080p
Формат видео: MKV
Видео: 1920x1080, 23,976 fps, AVC, ~30575 kbps
Аудио Rus: AC3 / 5.1 / 48 kHz / 384 kbps Dub iTunes
Аудио Rus: DTS-HD Master Audio / 5.1 / 48 kHz / 24 bit / 4053 kbps (DTS Core: 5.1 / 48 kHz / 1509 kbps / 24-bit) MVO Карусель
Аудио Rus: DTS-HD Master Audio / 5.1 / 48 kHz / 24 bit / 4037 kbps (DTS Core: 5.1 / 48 kHz / 1509 kbps / 24-bit) MVO R5
Аудио Rus: AC3 / 5.1 / 48 kHz / 384 kbps MVO
Аудио Rus: AC3 / 2.0 / 48 kHz / 192 kbps DVO Garsu Pasaulis
Аудио Rus: AC3 / 5.1 / 48 kHz / 448 kbps DVO
Аудио Rus: DTS-HD Master Audio / 5.1 / 48 kHz / 24 bit / 4049 kbps (DTS Core: 5.1 / 48 kHz / 1509 kbps / 24-bit) Живов
Аудио Rus: AC3 / 2.0 / 48 kHz / 192 kbps Дольский
Аудио Eng: DTS-HD Master Audio / 5.1 / 48 kHz / 24 bit / 4017 kbps (DTS Core: 5.1 / 48 kHz / 1509 kbps / 24-bit) Оригинал
Аудио Eng: AC3 / 2.0 / 48 kHz / 192 kbps Комментарии
Формат субтитров: softsub (SRT)

MediaInfo

GeneralComplete name                  : 15.Minutes.BDRemux.mkvFormat                         : MatroskaFormat version                 : Version 4File size                      : 40.9 GiBDuration                       : 2 h 0 minOverall bit rate mode          : VariableOverall bit rate               : 48.5 Mb/sFrame rate                     : 23.976 FPSEncoded date                   : 2023-06-11 13:08:58 UTCWriting application            : mkvmerge v73.0.0 ('25 or 6 to 4') 64-bitWriting library                : libebml v1.4.4 + libmatroska v1.7.1Cover                          : YesAttachments                    : cover.jpg
VideoID : 1Format : AVCFormat/Info : Advanced Video CodecFormat profile : High@L4.1Format settings : CABAC / 2 Ref FramesFormat settings, CABAC : YesFormat settings, Reference fra : 2 framesFormat settings, GOP : M=1, N=10Codec ID : V_MPEG4/ISO/AVCDuration : 2 h 0 minBit rate mode : VariableBit rate : 30.6 Mb/sWidth : 1 920 pixelsHeight : 1 080 pixelsDisplay aspect ratio : 16:9Frame rate mode : ConstantFrame rate : 23.976 (24000/1001) FPSColor space : YUVChroma subsampling : 4:2:0Bit depth : 8 bitsScan type : ProgressiveBits/(Pixel*Frame) : 0.615Stream size : 25.8 GiB (63%)Language : EnglishDefault : YesForced : No
Audio #1ID : 2Format : AC-3Format/Info : Audio Coding 3Commercial name : Dolby DigitalCodec ID : A_AC3Duration : 2 h 0 minBit rate mode : ConstantBit rate : 384 kb/sChannel(s) : 6 channelsChannel layout : L R C LFE Ls RsSampling rate : 48.0 kHzFrame rate : 31.250 FPS (1536 SPF)Compression mode : LossyStream size : 331 MiB (1%)Title : Dub (iTunes)Language : RussianService kind : Complete MainDefault : YesForced : No
Audio #2ID : 3Format : DTS XLLFormat/Info : Digital Theater SystemsCommercial name : DTS-HD Master AudioCodec ID : A_DTSDuration : 2 h 0 minBit rate mode : VariableBit rate : 4 053 kb/sChannel(s) : 6 channelsChannel layout : C L R Ls Rs LFESampling rate : 48.0 kHzFrame rate : 93.750 FPS (512 SPF)Bit depth : 24 bitsCompression mode : LosslessStream size : 3.42 GiB (8%)Title : MVO (Карусель)Language : RussianDefault : NoForced : No
Audio #3ID : 4Format : DTS XLLFormat/Info : Digital Theater SystemsCommercial name : DTS-HD Master AudioCodec ID : A_DTSDuration : 2 h 0 minBit rate mode : VariableBit rate : 4 037 kb/sChannel(s) : 6 channelsChannel layout : C L R Ls Rs LFESampling rate : 48.0 kHzFrame rate : 93.750 FPS (512 SPF)Bit depth : 24 bitsCompression mode : LosslessStream size : 3.40 GiB (8%)Title : MVO (R5)Language : RussianDefault : NoForced : No
Audio #4ID : 5Format : AC-3Format/Info : Audio Coding 3Commercial name : Dolby DigitalCodec ID : A_AC3Duration : 2 h 0 minBit rate mode : ConstantBit rate : 384 kb/sChannel(s) : 6 channelsChannel layout : L R C LFE Ls RsSampling rate : 48.0 kHzFrame rate : 31.250 FPS (1536 SPF)Compression mode : LossyStream size : 332 MiB (1%)Title : MVOLanguage : RussianService kind : Complete MainDefault : NoForced : No
Audio #5ID : 6Format : AC-3Format/Info : Audio Coding 3Commercial name : Dolby DigitalCodec ID : A_AC3Duration : 2 h 0 minBit rate mode : ConstantBit rate : 192 kb/sChannel(s) : 2 channelsChannel layout : L RSampling rate : 48.0 kHzFrame rate : 31.250 FPS (1536 SPF)Compression mode : LossyStream size : 166 MiB (0%)Title : DVO (Garsu Pasaulis)Language : RussianService kind : Complete MainDefault : NoForced : No
Audio #6ID : 7Format : AC-3Format/Info : Audio Coding 3Commercial name : Dolby DigitalCodec ID : A_AC3Duration : 2 h 0 minBit rate mode : ConstantBit rate : 448 kb/sChannel(s) : 6 channelsChannel layout : L R C LFE Ls RsSampling rate : 48.0 kHzFrame rate : 31.250 FPS (1536 SPF)Compression mode : LossyStream size : 387 MiB (1%)Title : DVOLanguage : RussianService kind : Complete MainDefault : NoForced : No
Audio #7ID : 8Format : DTS XLLFormat/Info : Digital Theater SystemsCommercial name : DTS-HD Master AudioCodec ID : A_DTSDuration : 2 h 0 minBit rate mode : VariableBit rate : 4 049 kb/sChannel(s) : 6 channelsChannel layout : C L R Ls Rs LFESampling rate : 48.0 kHzFrame rate : 93.750 FPS (512 SPF)Bit depth : 24 bitsCompression mode : LosslessStream size : 3.41 GiB (8%)Title : AVO (Живов)Language : RussianDefault : NoForced : No
Audio #8ID : 9Format : AC-3Format/Info : Audio Coding 3Commercial name : Dolby DigitalCodec ID : A_AC3Duration : 2 h 0 minBit rate mode : ConstantBit rate : 192 kb/sChannel(s) : 2 channelsChannel layout : L RSampling rate : 48.0 kHzFrame rate : 31.250 FPS (1536 SPF)Compression mode : LossyStream size : 166 MiB (0%)Title : AVO (Дольский)Language : RussianService kind : Complete MainDefault : NoForced : No
Audio #9ID : 10Format : DTS XLLFormat/Info : Digital Theater SystemsCommercial name : DTS-HD Master AudioCodec ID : A_DTSDuration : 2 h 0 minBit rate mode : VariableBit rate : 4 017 kb/sChannel(s) : 6 channelsChannel layout : C L R Ls Rs LFESampling rate : 48.0 kHzFrame rate : 93.750 FPS (512 SPF)Bit depth : 24 bitsCompression mode : LosslessStream size : 3.39 GiB (8%)Title : OriginalLanguage : EnglishDefault : NoForced : No
Audio #10ID : 11Format : AC-3Format/Info : Audio Coding 3Commercial name : Dolby DigitalFormat settings : Dolby SurroundCodec ID : A_AC3Duration : 2 h 0 minBit rate mode : ConstantBit rate : 192 kb/sChannel(s) : 2 channelsChannel layout : L RSampling rate : 48.0 kHzFrame rate : 31.250 FPS (1536 SPF)Compression mode : LossyStream size : 166 MiB (0%)Title : CommentsLanguage : EnglishService kind : Complete MainDefault : NoForced : No
Text #1ID : 12Format : UTF-8Codec ID : S_TEXT/UTF8Codec ID/Info : UTF-8 Plain TextDuration : 1 h 53 minBit rate : 102 b/sFrame rate : 0.199 FPSCount of elements : 1355Stream size : 85.6 KiB (0%)Title : FullLanguage : RussianDefault : NoForced : No
Text #2ID : 13Format : UTF-8Codec ID : S_TEXT/UTF8Codec ID/Info : UTF-8 Plain TextDuration : 1 h 53 minBit rate : 62 b/sFrame rate : 0.206 FPSCount of elements : 1396Stream size : 51.5 KiB (0%)Title : FullLanguage : EnglishDefault : NoForced : No
Text #3ID : 14Format : UTF-8Codec ID : S_TEXT/UTF8Codec ID/Info : UTF-8 Plain TextDuration : 1 h 53 minBit rate : 66 b/sFrame rate : 0.223 FPSCount of elements : 1518Stream size : 55.2 KiB (0%)Title : SDHLanguage : EnglishDefault : NoForced : No
Text #4ID : 15Format : UTF-8Codec ID : S_TEXT/UTF8Codec ID/Info : UTF-8 Plain TextDuration : 1 h 53 minBit rate : 77 b/sFrame rate : 0.223 FPSCount of elements : 1518Stream size : 64.6 KiB (0%)Title : SDH coloredLanguage : EnglishDefault : NoForced : No
Menu00:00:00.000 : en:Main Titles00:02:50.919 : en:If It Bleeds...00:06:59.626 : en:Ride Along00:09:37.326 : en:The First Scene00:15:25.799 : en:Accident or Arson?00:22:22.549 : en:No Responsibility00:31:57.623 : en:A Closer Look00:35:57.446 : en:Homicide School00:39:46.050 : en:Hunting Daphne00:45:42.906 : en:Hot Pursuit00:48:46.715 : en:Grilling Daphne00:52:52.335 : en:Nicolette and Eddie01:00:21.034 : en:Out on a Limb01:04:50.845 : en:Emil's Movie01:14:33.886 : en:Tragedy01:20:18.188 : en:Fire Trap01:27:43.131 : en:Special Broadcast01:33:50.166 : en:Judge and Jury01:38:01.125 : en:Victims01:44:19.544 : en:The Final Act01:52:38.626 : en:End Credits

Скриншоты


[Profile]  [PM] 
Display posts:    
Reply to topic

Current time is: 20-Jul 03:20

All times are UTC + 2



You cannot post new topics in this forum
You cannot reply to topics in this forum
You cannot edit your posts in this forum
You cannot delete your posts in this forum
You cannot vote in polls in this forum
You cannot attach files in this forum
You cannot download files in this forum