Похититель тел / Corps à corps (Франсуа Ансс / François Hanss) [2003, Франция, триллер, драма, WEB-DL 1080p] DVO + Original Fra

Reply to topic
 
Author
Message

Faust ®

Gender: Unknown

Longevity: 12 years

Posts: 23202

Reputation: 0 [+] [-]

Faust · Post 14-Jun-2023 10:10

[Quote] 

Похититель тел / Corps à corps
Страна: Франция
Жанр: триллер, драма
Год выпуска: 2003
Продолжительность: 01:36:57
Перевод: Профессиональный (двухголосый закадровый)
Субтитры: нет
Оригинальная аудиодорожка: французский
Режиссер: Франсуа Ансс / François Hanss
В ролях: Эмманюэль Сенье, Филипп Торретон, Клеман Брийан, Виттория Сконьямильо, Иоланда Моро, Марк Дюре, Морис Лами, Люсьен Жером, Кристиан Перейра, Элоиз Бон, Тони Готье
Описание: Они любили друг друга. Они любили друг друга так, как можно представить только в мечтах. Каждый день они проживали как последний. Они занимались любовью, он говорил слова любви и страсти её телу. Но однажды их жизнь, больше похожая на счастливую сказку, резко изменилась. Ясное небо вдруг затянули тёмные грозовые тучи. Это было начало кошмара. Что-то страшное из своего прошлого, что он скрыл от неё, начало вдруг проявляться. Что-то, на чём он пытался построить их счастье...
Сэмпл: https://disk.yandex.ru/i/mmrzvfJgjBuIkQ
Тип релиза: WEB-DL 1080p
Контейнер: MKV
Видео: AVC, 1920Х816, 2,35:1, 25.000 fps, 9521 Kbps
Аудио 1: русский, A_AC3, 48,0 KHz, 192 Kbps, 2 ch (L R)
Аудио 2: французский, A_AC3, 48,0 KHz, 448 Kbps, 6 ch (L R C LFE Ls Rs)

MediaInfo

ОбщееУникальный идентификатор                 : 92472634667793947020813637065375106771 (0x459194E4ACE223D232FFDCB3F07646D3)Полное имя                               : D:\Users\Home\Desktop\раздачи\Похититель тел\Corps A Corps (2003).mkvФормат                                   : MatroskaВерсия формата                           : Version 4Размер файла                             : 6,88 ГбайтПродолжительность                        : 1 ч. 36 м.Режим общего битрейта                    : ПостоянныйОбщий поток                              : 10,2 Мбит/секНазвание фильма                          : Corps A Corps (2003)Дата кодирования                         : UTC 2023-06-09 14:50:48Программа кодирования                    : mkvmerge v45.0.0 ('Heaven in Pennies') 64-bitБиблиотека кодирования                   : libebml v1.3.10 + libmatroska v1.5.2
ВидеоИдентификатор : 1Формат : AVCФормат/Информация : Advanced Video CodecПрофиль формата : High@L4Настройки формата : CABAC / 4 Ref FramesПараметр CABAC формата : ДаПараметр RefFrames формата : 4 кадраИдентификатор кодека : V_MPEG4/ISO/AVCПродолжительность : 1 ч. 36 м.Вид битрейта : ПостоянныйБитрейт : 9 521 Кбит/секНоминальный битрейт : 10 000 Кбит/секШирина : 1 920 пикселейВысота : 816 пикселейСоотношение сторон : 2,35:1Режим частоты кадров : ПостоянныйЧастота кадров : 25,000 кадров/секЦветовое пространство : YUVСубдискретизация насыщенности : 4:2:0Битовая глубина : 8 битТип развёртки : ПрогрессивнаяБит/(Пиксели*Кадры) : 0.243Размер потока : 6,45 Гбайт (94%)Заголовок : Custom FilmZDefault : ДаForced : НетЦветовой диапазон : LimitedОсновные цвета : BT.709Характеристики трансфера : BT.709Коэффициенты матрицы : BT.709
Аудио #1Идентификатор : 2Формат : AC-3Формат/Информация : Audio Coding 3Коммерческое название : Dolby DigitalИдентификатор кодека : A_AC3Продолжительность : 1 ч. 36 м.Вид битрейта : ПостоянныйБитрейт : 192 Кбит/секКаналы : 2 каналаChannel layout : L RЧастота : 48,0 КГцЧастота кадров : 31,250 кадров/сек (1536 SPF)Метод сжатия : С потерямиРазмер потока : 133 Мбайт (2%)Язык : RussianService kind : Complete MainDefault : ДаForced : Нет
Аудио #2Идентификатор : 3Формат : AC-3Формат/Информация : Audio Coding 3Коммерческое название : Dolby DigitalИдентификатор кодека : A_AC3Продолжительность : 1 ч. 36 м.Вид битрейта : ПостоянныйБитрейт : 448 Кбит/секКаналы : 6 каналовChannel layout : L R C LFE Ls RsЧастота : 48,0 КГцЧастота кадров : 31,250 кадров/сек (1536 SPF)Метод сжатия : С потерямиРазмер потока : 311 Мбайт (4%)Заголовок : FR VFF : AC3 5.1Язык : FrenchService kind : Complete MainDefault : НетForced : Нет

Скриншот c названием фильма

[Profile]  [PM] 
Display posts:    
Reply to topic

Current time is: 21-Jul 22:23

All times are UTC + 2



You cannot post new topics in this forum
You cannot reply to topics in this forum
You cannot edit your posts in this forum
You cannot delete your posts in this forum
You cannot vote in polls in this forum
You cannot attach files in this forum
You cannot download files in this forum