Ренфилд / Renfield (Крис МакКей / Chris McKay) [2023, США, комедия, ужасы, криминал, боевик, BDRip 1080p] 2х MVO (TVShows, LineFilm) + VO (Яроцкий) + Original (Eng) + Sub (rus, eng)

Reply to topic
 
Author
Message

Faust ®

Gender: Unknown

Longevity: 12 years

Posts: 23202

Reputation: 0 [+] [-]

Faust · Post 14-Jun-2023 10:10

[Quote] 

Ренфилд / Renfield
Sucks to be him
Страна: США
Жанр: Kомедия, ужасы, криминал, боевик
Год выпуска: 2023
Продолжительность: 01:33:34-Перевод 1: Профессиональный (многоголосый закадровый) TVShows
Перевод 2: Любительский (многоголосый закадровый) LineFilm 18+
Перевод 3: Одноголосый закадровый М.Яроцкий/Kyberpunk 18+
Cубтитры: Русские (Cool Story Blog 18+), Английские (Full, SDH)
Оригинальная аудиодорожка: Английский-Режиссёр: Крис МакКей / Chris McKay
В ролях: Николас Холт, Николас Кейдж, Аквафина, Бен Шварц, Шохре Агдашлу, Брэндон Скотт Джонс, Адриан Мартинес, Камилль Чен, Бесс Роус, Дженна Кэнелл, Даня ЛаБелль
Описание: Новый Орлеан. Ренфилд, верный слуга графа Дракулы, подыскивает своему хозяину пропитание в группе психологической поддержки пострадавших от токсичных отношений: разыскивает их мучителей и скармливает вампиру. Внезапно он осознаёт, что сам стал жертвой нарцисса с клыками, и решает избавиться от его власти. А в это время неподкупная сотрудница полиции, пытаясь прижать местную банду наркоторговцев, оказывается под дулом пистолета одного из её главарей. На помощь девушке внезапно приходит оказавшийся рядом Ренфилд.- -Тип релиза: BDRip 1080p
Контейнер: MKV-Видео: AVC/H.264, 1920x804, 18100 Mbps, 23.976 fps
Аудио 1: Русский | AC-3, 6 ch, 384 Kbps, 48.0 kHz MVO TVShows
Аудио 2: Русский | E-AC-3, 6 ch, 768 Kbps, 48.0 kHz MVO LineFilm 18+
Аудио 3: Русский | AC-3, 6 ch, 384 Kbps, 48.0 kHz VO М. Яроцкий 18+
Аудио 4: Английский | E-AC-3, 6 ch, 1024 Kbps, 48.0 kHz
Формат субтитров: softsub (SRT)-

MediaInfo

General
Unique ID                                : 167114955127727372670797081850399442185 (0x7DB92B6C72CD42E8D998E73BED304509)
Complete name                            : /Volumes/Promise Pegasus/Renfield.2023.BDRip.1080p.pk.mkv
Format                                   : Matroska
Format version                           : Version 4
File size                                : 13.5 GiB
Duration                                 : 1 h 33 min
Overall bit rate                         : 20.7 Mb/s
Frame rate                               : 23.976 FPS
Movie name                               : Renfield 2023 BDRip 1080p pk
Encoded date                             : 2023-06-03 00:05:20 UTC
Writing application                      : mkvmerge v73.0.0 ('25 or 6 to 4') 64-bit
Writing library                          : libebml v1.4.4 + libmatroska v1.7.1
Cover                                    : Yes
Attachments                              : cover.jpg
Video
ID                                       : 1
Format                                   : AVC
Format/Info                              : Advanced Video Codec
Format profile                           : High@L4.1
Format settings                          : CABAC / 5 Ref Frames
Format settings, CABAC                   : Yes
Format settings, Reference frames        : 5 frames
Codec ID                                 : V_MPEG4/ISO/AVC
Duration                                 : 1 h 33 min
Bit rate                                 : 18.1 Mb/s
Width                                    : 1 920 pixels
Height                                   : 804 pixels
Display aspect ratio                     : 2.40:1
Frame rate mode                          : Constant
Frame rate                               : 23.976 (24000/1001) FPS
Color space                              : YUV
Chroma subsampling                       : 4:2:0
Bit depth                                : 8 bits
Scan type                                : Progressive
Bits/(Pixel*Frame)                       : 0.489
Stream size                              : 11.8 GiB (88%)
Writing library                          : x264 core 164 r3106+55M encoded by pk5360114 in Russia
Encoding settings                        : cabac=1 / ref=5 / deblock=1:-3:-3 / analyse=0x3:0x133 / me=umh / subme=11 / psy=1 / fade_compensate=0.00 / psy_rd=1.05:0.00 / mixed_ref=1 / me_range=32 / chroma_me=1 / trellis=2 / 8x8dct=1 / cqm=0 / deadzone=21,11 / fast_pskip=0 / chroma_qp_offset=-2 / threads=25 / lookahead_threads=6 / sliced_threads=0 / nr=0 / decimate=0 / interlaced=0 / bluray_compat=0 / constrained_intra=0 / fgo=0 / bframes=13 / b_pyramid=2 / b_adapt=2 / b_bias=0 / direct=3 / weightb=1 / open_gop=0 / weightp=2 / keyint=240 / keyint_min=23 / scenecut=40 / intra_refresh=0 / rc_lookahead=60 / rc=crf / mbtree=0 / crf=16.3000 / qcomp=0.65 / qpmin=0:0:0 / qpmax=69:69:69 / qpstep=4 / vbv_maxrate=62500 / vbv_bufsize=78125 / crf_max=0.0 / nal_hrd=none / filler=0 / ip_ratio=1.30 / pb_ratio=1.20 / aq=3:0.80 / aq-sensitivity=10.00 / aq-factor=1.00:1.00:1.00 / aq2=0 / aq3=0
Language                                 : English
Default                                  : Yes
Forced                                   : No
Color range                              : Limited
Color primaries                          : BT.709
Transfer characteristics                 : BT.709
Matrix coefficients                      : BT.709
Audio #1
ID                                       : 2
Format                                   : AC-3
Format/Info                              : Audio Coding 3
Commercial name                          : Dolby Digital
Codec ID                                 : A_AC3
Duration                                 : 1 h 33 min
Bit rate mode                            : Constant
Bit rate                                 : 384 kb/s
Channel(s)                               : 6 channels
Channel layout                           : L R C LFE Ls Rs
Sampling rate                            : 48.0 kHz
Frame rate                               : 31.250 FPS (1536 SPF)
Compression mode                         : Lossy
Stream size                              : 257 MiB (2%)
Title                                    : Russian MVO TVShows
Language                                 : Russian
Service kind                             : Complete Main
Default                                  : Yes
Forced                                   : No
Audio #2
ID                                       : 3
Format                                   : E-AC-3
Format/Info                              : Enhanced AC-3
Commercial name                          : Dolby Digital Plus
Codec ID                                 : A_EAC3
Duration                                 : 1 h 33 min
Bit rate mode                            : Constant
Bit rate                                 : 768 kb/s
Channel(s)                               : 6 channels
Channel layout                           : L R C LFE Ls Rs
Sampling rate                            : 48.0 kHz
Frame rate                               : 31.250 FPS (1536 SPF)
Compression mode                         : Lossy
Stream size                              : 514 MiB (4%)
Title                                    : Russian MVO LineFilm
Language                                 : Russian
Service kind                             : Complete Main
Default                                  : No
Forced                                   : No
Audio #3
ID                                       : 4
Format                                   : AC-3
Format/Info                              : Audio Coding 3
Commercial name                          : Dolby Digital
Codec ID                                 : A_AC3
Duration                                 : 1 h 33 min
Bit rate mode                            : Constant
Bit rate                                 : 384 kb/s
Channel(s)                               : 6 channels
Channel layout                           : L R C LFE Ls Rs
Sampling rate                            : 48.0 kHz
Frame rate                               : 31.250 FPS (1536 SPF)
Compression mode                         : Lossy
Stream size                              : 257 MiB (2%)
Title                                    : Russian AVO Михаил Яроцкий
Language                                 : Russian
Service kind                             : Complete Main
Default                                  : No
Forced                                   : No
Audio #4
ID                                       : 5
Format                                   : E-AC-3
Format/Info                              : Enhanced AC-3
Commercial name                          : Dolby Digital Plus
Codec ID                                 : A_EAC3
Duration                                 : 1 h 33 min
Bit rate mode                            : Constant
Bit rate                                 : 1 024 kb/s
Channel(s)                               : 6 channels
Channel layout                           : L R C LFE Ls Rs
Sampling rate                            : 48.0 kHz
Frame rate                               : 31.250 FPS (1536 SPF)
Compression mode                         : Lossy
Stream size                              : 685 MiB (5%)
Title                                    : English Original
Language                                 : English
Service kind                             : Complete Main
Default                                  : No
Forced                                   : No
Text #1
ID                                       : 6
Format                                   : UTF-8
Codec ID                                 : S_TEXT/UTF8
Codec ID/Info                            : UTF-8 Plain Text
Duration                                 : 1 h 28 min
Bit rate                                 : 111 b/s
Frame rate                               : 0.275 FPS
Count of elements                        : 1463
Stream size                              : 72.4 KiB (0%)
Title                                    : Russian full Cool Story Blog 18+
Language                                 : Russian
Default                                  : No
Forced                                   : No
Text #2
ID                                       : 7
Format                                   : UTF-8
Codec ID                                 : S_TEXT/UTF8
Codec ID/Info                            : UTF-8 Plain Text
Duration                                 : 1 h 32 min
Bit rate                                 : 70 b/s
Frame rate                               : 0.292 FPS
Count of elements                        : 1625
Stream size                              : 48.2 KiB (0%)
Title                                    : English full
Language                                 : English
Default                                  : No
Forced                                   : No
Text #3
ID                                       : 8
Format                                   : UTF-8
Codec ID                                 : S_TEXT/UTF8
Codec ID/Info                            : UTF-8 Plain Text
Duration                                 : 1 h 33 min
Bit rate                                 : 77 b/s
Frame rate                               : 0.322 FPS
Count of elements                        : 1808
Stream size                              : 53.0 KiB (0%)
Title                                    : English SDH
Language                                 : English
Default                                  : No
Forced                                   : No
Menu
00:00:00.000                             : Chapter 01
00:04:55.378                             : Chapter 02
00:07:48.134                             : Chapter 03
00:11:31.566                             : Chapter 04
00:16:47.590                             : Chapter 05
00:21:51.810                             : Chapter 06
00:26:56.031                             : Chapter 07
00:31:26.676                             : Chapter 08
00:35:39.262                             : Chapter 09
00:38:21.549                             : Chapter 10
00:41:48.214                             : Chapter 11
00:46:53.519                             : Chapter 12
00:53:08.685                             : Chapter 13
00:57:08.717                             : Chapter 14
01:01:43.450                             : Chapter 15
01:07:10.068                             : Chapter 16
01:11:41.047                             : Chapter 17
01:19:12.957                             : Chapter 18
01:24:21.640                             : Chapter 19
01:26:50.872                             : Chapter 20

x264 log

x264 [info]: frame I:1100  Avg QP:13.71  size:215442
x264 [info]: frame P:28682 Avg QP:14.72  size:136401
x264 [info]: frame B:104835 Avg QP:16.08  size: 81679
x264 [info]: consecutive B-frames:  3.2%  3.3%  7.4% 12.0% 13.3% 39.8%  9.2%  3.3%  2.8%  1.4%  1.2%  1.0%  1.2%  0.9%
x264 [info]: kb/s:18112.76

Скриншоты сравнения




Скриншоты

[Profile]  [PM] 
Display posts:    
Reply to topic

Current time is: 21-Jul 22:22

All times are UTC + 2



You cannot post new topics in this forum
You cannot reply to topics in this forum
You cannot edit your posts in this forum
You cannot delete your posts in this forum
You cannot vote in polls in this forum
You cannot attach files in this forum
You cannot download files in this forum