Росарио - Ножницы / Rosario Tijeras (Эмилио Маилле / Emilio Maillé) [2005, Бразилия, Испания, Мексика, Колумбия, драма, мелодрама, криминал, BDRemux 1080p] [Fra Transfer] MVO (Студия "Инис") + Sub Rus, Fra + Original Spa

Reply to topic
 
Author
Message

Faust ®

Gender: Unknown

Longevity: 12 years

Posts: 23187

Reputation: 0 [+] [-]

Faust · Post 14-Jun-2023 14:15

[Quote] 

Росарио - Ножницы
Rosario Tijeras

Страна: Бразилия, Испания, Мексика, Колумбия
Студия: CMO Producciones, Dulce Compania, Fondo de Inversión y Estímulos al Cine (FIDECINE)
Жанр: драма, мелодрама, криминал
Год выпуска: 2005
Продолжительность: 01:56:31
Перевод: Профессиональный (многоголосый закадровый) Студия "Инис" по заказу Синема Престиж
Субтитры: русские, французские
Оригинальная аудиодорожка: испанский
Режиссер: Эмилио Маилле / Emilio Maillé
В ролях: Флора Мартинез, Унакс Угальде, Маноло Кардона, Родриго Овьедо, Алонсо Ариас, Алехандра Борреро, Алекс Кокс, Элиос Фернандес, Энрике Сарасола, Мария Тереса Гомес и др.
Описание: В ночном клубе два плейбоя, Эмилио и Антонио, знакомятся со сногсшибательной девушкой. У первого с ней сразу начинается роман, второй становится ей верным другом. Но однажды эта красавица недрогнувшей рукой убивает одного из завсегдатаев злачного заведения, посмевшего над ней посмеяться. С места преступления она скрывается вместе с друзьями, которым скоро предстоит узнать немало удивительного о жизни Росарио, в том числе и причину появления столь многозначительного прозвища – Ножницы…
-
Сэмпл IMDB Кинопоиск
-
Доп. информация:
Русская дорога, испанская шестиканалка и русские субтитры с раздачи alex.us
Тип релиза: BDRemux 1080p
Контейнер: MKV
Видео: AVC / 1920x1080 / 16:9 / 24.0 fps / 17995 Kbps / High@L4.1
Аудио 1 Rus: AC3 / 48.0 KHz / 5.1 / 384 kbps / MVO / Студия "Инис"
Аудио 2 Spa: DTS-HD MA / 48.0 KHz / 2.0 / 1679 kbps / 16 bit (DTS Core 48.0 KHz / 2.0 / 1509 kbps / 16 bit)
Аудио 3 Spa: AC3 / 48.0 KHz / 5.1 / 384 kbps
Формат субтитров: softsub (SRT) - русские; PGS - французские

MediaInfo

GeneralUnique ID                                : 118339936157312460917342208633453548929 (0x5907715292DBE8D0B0679D1184C61581)Complete name                            : F:\porvaliparus\Rosario.Tijeras.2005.BDRemux.1080p.mkvFormat                                   : MatroskaFormat version                           : Version 4 / Version 2File size                                : 16.7 GiBDuration                                 : 1 h 56 minOverall bit rate mode                    : VariableOverall bit rate                         : 20.5 Mb/sMovie name                               : Rosario Tijeras (2005)Encoded date                             : UTC 2023-06-13 12:49:01Writing application                      : mkvmerge v77.0 ('Elemental') 64-bitWriting library                          : libebml v1.4.4 + libmatroska v1.7.1Cover                                    : YesAttachments                              : Cover.jpg
VideoID : 1Format : AVCFormat/Info : Advanced Video CodecFormat profile : High@L4.1Format settings, CABAC : YesFormat settings, ReFrames : 4 framesFormat settings, GOP : M=3, N=18Codec ID : V_MPEG4/ISO/AVCDuration : 1 h 56 minBit rate mode : VariableBit rate : 18.0 Mb/sMaximum bit rate : 30.0 Mb/sWidth : 1 920 pixelsHeight : 1 080 pixelsDisplay aspect ratio : 16:9Frame rate mode : ConstantFrame rate : 24.000 FPSStandard : PALColor space : YUVChroma subsampling : 4:2:0Bit depth : 8 bitsScan type : ProgressiveBits/(Pixel*Frame) : 0.362Stream size : 14.6 GiB (88%)Title : Rosario.Tijeras.2005.BDRemux.1080p-porvaliparusDefault : YesForced : NoColor range : LimitedColor primaries : BT.709Transfer characteristics : BT.709Matrix coefficients : BT.709
Audio #1ID : 2Format : AC-3Format/Info : Audio Coding 3Format settings, Endianness : BigCodec ID : A_AC3Duration : 1 h 56 minBit rate mode : ConstantBit rate : 384 kb/sChannel(s) : 6 channelsChannel positions : Front: L C R, Side: L R, LFESampling rate : 48.0 kHzFrame rate : 31.250 FPS (1536 spf)Bit depth : 16 bitsCompression mode : LossyStream size : 320 MiB (2%)Title : Студия "Инис"Language : RussianService kind : Complete MainDefault : YesForced : No
Audio #2ID : 3Format : DTSFormat/Info : Digital Theater SystemsFormat profile : MA / CoreMode : 16Format settings, Endianness : BigCodec ID : A_DTSDuration : 1 h 56 minBit rate mode : Variable / ConstantBit rate : 1 679 kb/s / 1 509 kb/sChannel(s) : 2 channelsChannel positions : Front: L RSampling rate : 48.0 kHzFrame rate : 93.750 FPS (512 spf)Bit depth : 16 bitsCompression mode : Lossless / LossyStream size : 1.37 GiB (8%)Language : SpanishDefault : NoForced : No
Audio #3ID : 4Format : AC-3Format/Info : Audio Coding 3Format settings, Endianness : BigCodec ID : A_AC3Duration : 1 h 56 minBit rate mode : ConstantBit rate : 384 kb/sChannel(s) : 6 channelsChannel positions : Front: L C R, Side: L R, LFESampling rate : 48.0 kHzFrame rate : 31.250 FPS (1536 spf)Bit depth : 16 bitsCompression mode : LossyStream size : 320 MiB (2%)Language : SpanishService kind : Complete MainDefault : NoForced : No
Text #1ID : 5Format : UTF-8Codec ID : S_TEXT/UTF8Codec ID/Info : UTF-8 Plain TextDuration : 1 h 50 minBit rate : 48 b/sCount of elements : 664Stream size : 39.2 KiB (0%)Language : RussianDefault : NoForced : No
Text #2ID : 6Format : PGSCodec ID : S_HDMV/PGSCodec ID/Info : Picture based subtitle format used on BDs/HD-DVDsDuration : 1 h 56 minBit rate : 15.5 kb/sCount of elements : 1478Stream size : 12.9 MiB (0%)Language : FrenchDefault : NoForced : No
Menu00:00:00.000 : en:Глава 0100:20:51.208 : en:Глава 0200:39:40.583 : en:Глава 0300:59:31.000 : en:Глава 0401:20:04.167 : en:Глава 0501:44:39.042 : en:Глава 06

Скриншоты


Информация об исходнике

Disc Title: ROSARIO_TIJERAS
Disc Size: 23.697.685.336 bytes
Protection: AACS
BD-Java: No
Playlist: 00005.MPLS
Size: 20.576.299.008 bytes
Length: 1:56:31.583
Total Bitrate: 23,54 Mbps
Video: MPEG-4 AVC Video / 17995 kbps / 1080p / 24 fps / 16:9 / High Profile 4.1
Audio: French / DTS-HD Master Audio / 5.1 / 48 kHz / 1888 kbps / 16-bit (DTS Core: 5.1 / 48 kHz / 1509 kbps / 16-bit)
Audio: Spanish / LPCM Audio / 2.0 / 48 kHz / 2304 kbps / 24-bit
Subtitle: French / 15,522 kbps
[Profile]  [PM] 
Display posts:    
Reply to topic

Current time is: 20-Jul 03:19

All times are UTC + 2



You cannot post new topics in this forum
You cannot reply to topics in this forum
You cannot edit your posts in this forum
You cannot delete your posts in this forum
You cannot vote in polls in this forum
You cannot attach files in this forum
You cannot download files in this forum