Тошнит от себя / Sick of Myself / Syk Pike (Кристоффер Боргли / Kristoffer Borgli) [2022, Норвегия, Швеция, драма, комедия, BDRip 1080p] Sub Rus, Eng, Nor, Dan + Original Nor

Reply to topic
 
Author
Message

Faust ®

Gender: Unknown

Longevity: 12 years

Posts: 23217

Reputation: 0 [+] [-]

Faust · Post 15-Jun-2023 02:35

[Quote] 

Тошнит от себя / Sick of Myself / Syk Pike
Страна: Норвегия, Швеция
Жанр: драма, комедия
Год выпуска: 2022
Продолжительность: 1:37:18
Перевод: Субтитры
Субтитры: русские Сканди-шкаф, английские, норвежские, датские
Оригинальная аудиодорожка: норвежский
Режиссер: Кристоффер Боргли / Kristoffer Borgli
В ролях: Кристин Куят Торп, Eirik Sæther, Fanny Vaager, Сара Франческа Бренне, Фредрик Штенберг Дитлев-Симонсен, Стейнар Клоуман Халлерт, Ингрид Воллан, Андреа Брайн Ховиг, Хенрик Местад, Андерс Даниелсен Лье
Описание: Сигне работает в кофейне и живёт со своим парнем-художником Томасом, который создает скульптуры из собственноручно украденной мебели. После одного происшествия на работе девушка находит, как ей кажется, идеальный способ притягивать внимание и сочувствующие взгляды. В то время как Томас проводит свою первую выставку и набирает популярность в культурной среде Осло, Сигне намеренно начинает принимать экспериментальные таблетки, которые вызывают ужасное кожное заболевание.
Доп. информация: Имеется аудиодорожка с комментариями к фильму Кристоффера Боргли.
Сэмпл: https://disk.yandex.ru/i/aekCd2xKFpJ81A
Качество видео: BDRip 1080p
Формат видео: MKV
Видео: AVC / 1920 x 1038 / 16:9 / 23.976 FPS / 19.5 Mb/s / High@L4 / Progressive
Аудио 1: Norwegian / DDP / 1024 kb/s / 5.1ch
Аудио 2: English / AAC LC / 93.6 kb/s / 2.0ch / Commentary with Kristoffer Borgli
Формат субтитров: softsub (SRT)
Доп. информация о субтитрах: (rus, eng, nor, dan)

MediaInfo

GeneralUnique ID                                : 3323245782454471974340125925573375448 (0x28008AAD1CAF4B46B25C8C3198BB5D8)Complete name                            : C:\Users\user\Desktop\Syk.pike.2022.1080p.BluRay.DD+5.1.x264-SbR.mkvFormat                                   : MatroskaFormat version                           : Version 4File size                                : 14.0 GiBDuration                                 : 1 h 37 minOverall bit rate                         : 20.6 Mb/sEncoded date                             : UTC 2023-06-12 13:01:25Writing application                      : mkvmerge v73.0.0 ('25 or 6 to 4') 64-bitWriting library                          : libebml v1.4.4 + libmatroska v1.7.1
VideoID : 1Format : AVCFormat/Info : Advanced Video CodecFormat profile : High@L4.1Format settings : CABAC / 4 Ref FramesFormat settings, CABAC : YesFormat settings, Reference frames : 4 framesCodec ID : V_MPEG4/ISO/AVCDuration : 1 h 37 minBit rate : 19.5 Mb/sWidth : 1 920 pixelsHeight : 1 038 pixelsDisplay aspect ratio : 1.85:1Frame rate mode : ConstantFrame rate : 23.976 (24000/1001) FPSColor space : YUVChroma subsampling : 4:2:0Bit depth : 8 bitsScan type : ProgressiveBits/(Pixel*Frame) : 0.407Stream size : 13.2 GiB (95%)Writing library : x264 core 164 r3106+49 2efe26b devel [(8 & 10)-bit@all X86_64]Encoding settings : cabac=1 / ref=4 / deblock=1:-3:-3 / analyse=0x3:0x133 / me=umh / subme=11 / psy=1 / fade_compensate=0.00 / psy_rd=1.00:0.00 / mixed_ref=1 / me_range=32 / chroma_me=1 / trellis=2 / 8x8dct=1 / cqm=0 / deadzone=21,11 / fast_pskip=1 / chroma_qp_offset=-2 / threads=32 / lookahead_threads=8 / sliced_threads=0 / nr=0 / decimate=1 / interlaced=0 / bluray_compat=0 / constrained_intra=0 / fgo=0 / bframes=10 / b_pyramid=2 / b_adapt=2 / b_bias=0 / direct=3 / weightb=1 / open_gop=0 / weightp=2 / keyint=250 / keyint_min=23 / scenecut=40 / intra_refresh=0 / rc=crf / mbtree=0 / crf=19.0000 / qcomp=0.60 / qpmin=0:0:0 / qpmax=69:69:69 / qpstep=4 / ip_ratio=1.25 / pb_ratio=1.20 / aq=3:0.80 / aq-sensitivity=10.00 / aq-factor=1.00:1.00:1.00 / aq2=0 / aq3=0Language : NorwegianDefault : YesForced : No
Audio #1ID : 2Format : E-AC-3Format/Info : Enhanced AC-3Commercial name : Dolby Digital PlusCodec ID : A_EAC3Duration : 1 h 37 minBit rate mode : ConstantBit rate : 1 024 kb/sChannel(s) : 6 channelsChannel layout : L R C LFE Ls RsSampling rate : 48.0 kHzFrame rate : 31.250 FPS (1536 SPF)Compression mode : LossyStream size : 713 MiB (5%)Language : NorwegianService kind : Complete MainDefault : YesForced : No
Audio #2ID : 3Format : AAC LCFormat/Info : Advanced Audio Codec Low ComplexityCodec ID : A_AAC-2Duration : 1 h 37 minBit rate : 93.6 kb/sChannel(s) : 2 channelsChannel layout : L RSampling rate : 48.0 kHzFrame rate : 46.875 FPS (1024 SPF)Compression mode : LossyDelay relative to video : 9 msStream size : 65.1 MiB (0%)Title : Commentary with Kristoffer BorgliLanguage : EnglishDefault : NoForced : No
Text #1ID : 4Format : UTF-8Codec ID : S_TEXT/UTF8Codec ID/Info : UTF-8 Plain TextDuration : 1 h 32 minBit rate : 87 b/sFrame rate : 0.261 FPSCount of elements : 1453Stream size : 59.5 KiB (0%)Language : RussianDefault : YesForced : No
Text #2ID : 5Format : UTF-8Codec ID : S_TEXT/UTF8Codec ID/Info : UTF-8 Plain TextDuration : 1 h 32 minBit rate : 47 b/sFrame rate : 0.232 FPSCount of elements : 1285Stream size : 31.9 KiB (0%)Language : EnglishDefault : NoForced : No
Text #3ID : 6Format : UTF-8Codec ID : S_TEXT/UTF8Codec ID/Info : UTF-8 Plain TextDuration : 1 h 33 minBit rate : 54 b/sFrame rate : 0.199 FPSCount of elements : 1109Stream size : 37.3 KiB (0%)Language : DanishDefault : NoForced : No
Text #4ID : 7Format : UTF-8Codec ID : S_TEXT/UTF8Codec ID/Info : UTF-8 Plain TextDuration : 1 h 32 minBit rate : 55 b/sFrame rate : 0.179 FPSCount of elements : 988Stream size : 37.3 KiB (0%)Language : NorwegianDefault : NoForced : No
Menu00:00:00.000 : en:Chapter 0100:19:38.177 : en:Chapter 0200:41:19.477 : en:Chapter 0301:00:51.148 : en:Chapter 0401:18:17.693 : en:Chapter 05

Скриншот c названием фильма

Скриншоты

[Profile]  [PM] 
Display posts:    
Reply to topic

Current time is: 25-Jul 06:26

All times are UTC + 2



You cannot post new topics in this forum
You cannot reply to topics in this forum
You cannot edit your posts in this forum
You cannot delete your posts in this forum
You cannot vote in polls in this forum
You cannot attach files in this forum
You cannot download files in this forum