Звёздный десант / Star Command (Джим Джонстон / Jim Johnston) [1996, США, Германия, фантастика, боевик, приключения, DVDRip] AVO (Антон Алексеев)

Reply to topic
 
Author
Message

Satyr ®

Online

Gender: Unknown

Longevity: 15 years

Posts: 22035

Reputation: 56 [+] [-]

Satyr · Post 15-Jun-2023 02:35

[Quote] 

Звёздный десант / Star Command
Страна: США, Германия
Жанр: фантастика, боевик, приключения
Год выпуска: 1996
Продолжительность: 01:32:17
Перевод: Авторский (одноголосый закадровый) Антон Алексеев
Субтитры: нет
Оригинальная аудиодорожка: нет
Режиссер: Джим Джонстон / Jim Johnston
В ролях: Джей Андервуд, Дженнифер Брэнсфорд, Крис Конрад, Темби Лок, Келли Ху, Иван Сергей, Ева Хаберманн, Морган Фэйрчайлд, Чад Эверетт, Ганс Мартин Штир ..
Описание: Команда кадетов-выпускников космической академии отправляется в свой первый настоящий полёт, и сразу же сталкивается с настоящей угрозой. После вражеской атаки все высшие офицерские чины на корабле погибают, и новичкам приходится принять командование на себя.
Доп. информация: Дорожку с Алексеевым синхронизировал ale_x2008
За оцифрованную с VHS дорожку благодарим - d_rocker

Релиз
Сэмпл: https://www.sendspace.com/file/lzn9qz
Качество видео: DVDRip
Формат видео: AVI
Видео: 688x528 (1.30:1), 25 fps, XviD build 67 ~2069 kbps avg, 0.23 bit/pixel
Аудио: 48 kHz, AC3 Dolby Digital, 2/0 (L,R) ch (моно), ~192 kbps

MediaInfo

Звёздный десант (Star Command) [by ale_x2008].aviFormat                      : AVIFormat/Info                 : Audio Video InterleaveFormat settings             : WaveFormatExFile size                   : 1.46 GiBDuration                    : 1 h 32 minOverall bit rate            : 2 271 kb/sFrame rate                  : 25.000 FPSWriting application         : VirtualDubMod 1.5.10.2 (build 2540/release)
VideoID : 0Format : MPEG-4 VisualFormat profile : Advanced Simple@L5Format settings : BVOP1Format settings, BVOP : 1Format settings, QPel : NoFormat settings, GMC : No warppointsFormat settings, Matrix : Default (MPEG)Codec ID : XVIDCodec ID/Hint : XviDDuration : 1 h 32 minBit rate : 2 070 kb/sWidth : 688 pixelsHeight : 528 pixelsDisplay aspect ratio : 4:3Frame rate : 25.000 FPSColor space : YUVChroma subsampling : 4:2:0Bit depth : 8 bitsScan type : ProgressiveCompression mode : LossyBits/(Pixel*Frame) : 0.228Stream size : 1.33 GiB (91%)Writing library : XviD 67
AudioID : 1Format : AC-3Format/Info : Audio Coding 3Commercial name : Dolby DigitalCodec ID : 2000Duration : 1 h 32 minBit rate mode : ConstantBit rate : 192 kb/sChannel(s) : 2 channelsChannel layout : L RSampling rate : 48.0 kHzFrame rate : 31.250 FPS (1536 SPF)Compression mode : LossyStream size : 127 MiB (8%)Alignment : Split across interleavesInterleave, duration : 40 ms (1.00 video frame)Interleave, preload duratio : 500 msService kind : Complete Main

Скриншоты


[Profile]  [PM] 
Display posts:    
Reply to topic

Current time is: 21-Jul 22:44

All times are UTC + 2



You cannot post new topics in this forum
You cannot reply to topics in this forum
You cannot edit your posts in this forum
You cannot delete your posts in this forum
You cannot vote in polls in this forum
You cannot attach files in this forum
You cannot download files in this forum