Ма / Ma (Тейт Тейлор / Tate Taylor) [2019, США, ужасы, триллер, BDRip-AVC] Dub + Sub (Rus, Eng) + Original Eng

Reply to topic
 
Author
Message

Satyr ®

Gender: Unknown

Longevity: 15 years

Posts: 22045

Reputation: 56 [+] [-]

Satyr · Post 16-Jun-2023 02:05

[Quote] 

Ма / Ma
«Осторожно, детки, берегитесь»
-
Страна: США
Производство: Blumhouse Productions, Wyolah Films
Год выпуска: 2019
Жанр: ужасы, триллер
Продолжительность: 01:39:21
Перевод: Профессиональный (полное дублирование) | BD EUR
Субтитры: Rus (Forced,Full), Eng (Full, SDH)
Оригинальная аудиодорожка: Eng
Режиссер: Тейт Тейлор / Tate Taylor
В ролях:
Октавия Спенсер | Octavia Spencer
Люк Эванс | Luke Evans

Диана Сильверс, Джульетт Льюис, МакКэйли Миллер, Кори Фогельманис, Джанни Паоло, Данте Браун, Тэниэлл Уэйверс, Доминик Бёрджесс, Хезер Мари Пэйт, Тейт Тейлор-Описание:Все знают, что у МА самые крутые вечеринки в городе. Здесь всегда громкая музыка, и алкоголь льётся рекой. В этом доме нет никаких ограничений, кроме одного: никогда не заходи в её комнату... Добро пожаловать к МА...-
IMDB 5.6
Sample-Тип релиза: BDRip-AVC | Blu-ray disc 1080p
Контейнер: MKV
Видео: AVC 2888 kb/s 1104 x 462 (2.390) 23.976 fps
Аудио №1: AC-3 448 kb/s 6 channels, 48.0 kHz | RUS DUB
Аудио №2: AC-3 448 kb/s 6 channels, 48.0 kHz | ENG
Формат субтитров: softsub (SRT)

MediaInfo | Log

Log

x264 [info]: profile High, level 4.1, 4:2:0, 8-bit
x264 [info]: frame I:1503 Avg QP:14.44 size: 88061
x264 [info]: frame P:29012 Avg QP:15.56 size: 31352
x264 [info]: frame B:112425 Avg QP:17.66 size: 9877
x264 [info]: consecutive B-frames: 2.0% 2.4% 7.6% 13.5% 16.7% 42.1% 6.8% 1.8% 2.1% 1.6% 3.4%
x264 [info]: mb I I16..4: 13.9% 71.1% 15.0%
x264 [info]: mb P I16..4: 0.6% 15.3% 1.1% P16..4: 24.5% 32.2% 15.4% 2.9% 0.2% skip: 7.8%
x264 [info]: mb B I16..4: 0.0% 1.4% 0.1% B16..8: 32.6% 23.5% 5.5% direct: 4.9% skip:32.0% L0:45.6% L1:41.7% BI:12.7%
x264 [info]: 8x8 transform intra:87.2% inter:53.5%
x264 [info]: direct mvs spatial:99.9% temporal:0.1%
x264 [info]: coded y,uvDC,uvAC intra: 97.2% 94.3% 86.7% inter: 26.2% 21.0% 6.8%
x264 [info]: i16 v,h,dc,p: 16% 4% 26% 54%
x264 [info]: i8 v,h,dc,ddl,ddr,vr,hd,vl,hu: 10% 7% 14% 9% 12% 12% 11% 12% 12%
x264 [info]: i4 v,h,dc,ddl,ddr,vr,hd,vl,hu: 9% 7% 8% 9% 16% 15% 13% 12% 12%
x264 [info]: i8c dc,h,v,p: 53% 16% 16% 16%
x264 [info]: Weighted P-Frames: Y:4.3% UV:2.5%
x264 [info]: ref P L0: 45.4% 9.7% 18.8% 6.6% 5.9% 3.5% 3.7% 1.7% 1.8% 1.3% 1.5% 0.1% 0.0%
x264 [info]: ref B L0: 68.8% 12.9% 6.6% 3.6% 2.5% 2.1% 1.6% 1.0% 0.6% 0.3%
x264 [info]: ref B L1: 93.6% 6.4%
x264 [info]: kb/s:2888.16
x264 [total]: encoded 142940 frames, 26.32 fps, 2888.16 kb/s
Format : Matroska
Format version : Version 4
File size : 2.63 GiB
Duration : 1 h 39 min
Overall bit rate : 3 787 kb/s
Movie name : Ma (2019) [torrentsland.com.ua]
Encoded date : UTC 2023-06-13 19:58:45
Writing application : mkvmerge v34.0.0 ('Sight and Seen') 64-bit
Writing library : libebml v1.3.7 + libmatroska v1.5.0
Video
ID : 1
Format : AVC
Format/Info : Advanced Video Codec
Format profile : High@L4.1
Format settings : CABAC / 11 Ref Frames
Format settings, CABAC : Yes
Format settings, Reference frames : 11 frames
Codec ID : V_MPEG4/ISO/AVC
Duration : 1 h 39 min
Bit rate : 2 888 kb/s
Width : 1 104 pixels
Height : 462 pixels
Display aspect ratio : 2.40:1
Frame rate mode : Constant
Frame rate : 23.976 (24000/1001) FPS
Color space : YUV
Chroma subsampling : 4:2:0
Bit depth : 8 bits
Scan type : Progressive
Bits/(Pixel*Frame) : 0.236
Stream size : 2.00 GiB (76%)
Title : Ma (2019) [torrentsland.com.ua]
Writing library : x264 core 164 r3107 a8b68eb
Encoding settings : cabac=1 / ref=11 / deblock=1:-3:-2 / analyse=0x3:0x133 / me=umh / subme=11 / psy=1 / psy_rd=1.00:0.05 / mixed_ref=1 / me_range=32 / chroma_me=1 / trellis=2 / 8x8dct=1 / cqm=0 / deadzone=21,11 / fast_pskip=0 / chroma_qp_offset=-3 / threads=14 / lookahead_threads=3 / sliced_threads=0 / nr=0 / decimate=1 / interlaced=0 / bluray_compat=0 / constrained_intra=0 / bframes=10 / b_pyramid=2 / b_adapt=2 / b_bias=0 / direct=3 / weightb=1 / open_gop=0 / weightp=2 / keyint=250 / keyint_min=23 / scenecut=40 / intra_refresh=0 / rc_lookahead=60 / rc=crf / mbtree=0 / crf=17.4 / qcomp=0.60 / qpmin=0 / qpmax=69 / qpstep=4 / vbv_maxrate=50000 / vbv_bufsize=62500 / crf_max=0.0 / nal_hrd=none / filler=0 / ip_ratio=1.40 / pb_ratio=1.30 / aq=3:0.90
Language : English
Default : Yes
Forced : No
Audio #1
ID : 2
Format : AC-3
Format/Info : Audio Coding 3
Commercial name : Dolby Digital
Codec ID : A_AC3
Duration : 1 h 39 min
Bit rate mode : Constant
Bit rate : 448 kb/s
Channel(s) : 6 channels
Channel layout : L R C LFE Ls Rs
Sampling rate : 48.0 kHz
Frame rate : 31.250 FPS (1536 SPF)
Compression mode : Lossy
Stream size : 318 MiB (12%)
Title : DUB BD EUR
Language : Russian
Service kind : Complete Main
Default : Yes
Forced : No
Audio #2
ID : 3
Format : AC-3
Format/Info : Audio Coding 3
Commercial name : Dolby Digital
Codec ID : A_AC3
Duration : 1 h 39 min
Bit rate mode : Constant
Bit rate : 448 kb/s
Channel(s) : 6 channels
Channel layout : L R C LFE Ls Rs
Sampling rate : 48.0 kHz
Frame rate : 31.250 FPS (1536 SPF)
Compression mode : Lossy
Stream size : 318 MiB (12%)
Title : Original
Language : English
Service kind : Complete Main
Default : No
Forced : No
Text #1
ID : 4
Format : UTF-8
Codec ID : S_TEXT/UTF8
Codec ID/Info : UTF-8 Plain Text
Duration : 1 h 25 min
Bit rate : 0 b/s
Frame rate : 0.001 FPS
Count of elements : 6
Stream size : 203 Bytes (0%)
Title : Forced
Language : Russian
Default : Yes
Forced : No
Text #2
ID : 5
Format : UTF-8
Codec ID : S_TEXT/UTF8
Codec ID/Info : UTF-8 Plain Text
Duration : 1 h 29 min
Bit rate : 94 b/s
Frame rate : 0.273 FPS
Count of elements : 1463
Stream size : 61.9 KiB (0%)
Title : Full
Language : Russian
Default : No
Forced : No
Text #3
ID : 6
Format : UTF-8
Codec ID : S_TEXT/UTF8
Codec ID/Info : UTF-8 Plain Text
Duration : 1 h 38 min
Bit rate : 62 b/s
Frame rate : 0.237 FPS
Count of elements : 1401
Stream size : 45.3 KiB (0%)
Title : Full
Language : English
Default : No
Forced : No
Text #4
ID : 7
Format : UTF-8
Codec ID : S_TEXT/UTF8
Codec ID/Info : UTF-8 Plain Text
Duration : 1 h 38 min
Bit rate : 68 b/s
Frame rate : 0.259 FPS
Count of elements : 1533
Stream size : 49.7 KiB (0%)
Title : SDH
Language : English
Default : No
Forced : No
Menu
00:00:00.000 : en:Chapter 1
00:05:07.807 : en:Chapter 2
00:10:42.350 : en:Chapter 3
00:15:52.743 : en:Chapter 4
00:19:27.166 : en:Chapter 5
00:25:44.209 : en:Chapter 6
00:30:02.801 : en:Chapter 7
00:35:02.392 : en:Chapter 8
00:40:19.792 : en:Chapter 9
00:45:13.836 : en:Chapter 10
00:50:08.964 : en:Chapter 11
00:54:34.688 : en:Chapter 12
00:57:49.675 : en:Chapter 13
01:02:11.019 : en:Chapter 14
01:06:09.299 : en:Chapter 15
01:11:45.301 : en:Chapter 16
01:16:23.829 : en:Chapter 17
01:20:30.868 : en:Chapter 18
01:25:23.327 : en:Chapter 19
01:32:41.473 : en:Chapter 20

Скриншоты




[Profile]  [PM] 
Display posts:    
Reply to topic

Current time is: 25-Jul 06:52

All times are UTC + 2



You cannot post new topics in this forum
You cannot reply to topics in this forum
You cannot edit your posts in this forum
You cannot delete your posts in this forum
You cannot vote in polls in this forum
You cannot attach files in this forum
You cannot download files in this forum