Мертвец в колледже / Покойник в общаге / Dead Man on Campus (Алан Кон / Alan Cohn) [1998, США, комедия, HDRip-AVC] DVO (Премьер Видео) + AVO (Юрий Живов) + Sub Eng + Original Eng

Reply to topic
 
Author
Message

Satyr ®

Gender: Unknown

Longevity: 15 years

Posts: 22031

Reputation: 56 [+] [-]

Satyr · Post 16-Jun-2023 02:05

[Quote] 

Мертвец в колледже / Покойник в общаге / Dead Man on Campus
Страна: США
Жанр: комедия
Год выпуска: 1998
Продолжительность: 01:34:22
Перевод 1: Профессиональный (двухголосый закадровый) Премьер Видео
Перевод 2: Авторский (одноголосый закадровый) Юрий Живов
Субтитры: английские
Оригинальная аудиодорожка: английский
Режиссер: Алан Кон / Alan Cohn
В ролях: Том Эверетт Скотт, Марк-Пол Госселаар, Поппи Монтгомери, Локлин Манро, Элисон Хэннигэн, Джейсон Сигел
Описание: Два одногруппника по колледжу ходят на вечеринки вместо учебы, в результате чего получают плохие оценки. Над ними нависла угроза исключения из колледжа. Когда они узнают об одном старом законе колледжа, в котором говорится: "если твой сосед умрёт, то вам будут ставить только пятерки", то решили найти кого-нибудь, кто находится на грани самоубийства, и уговорить переехать к ним в комнату ...
Доп. информация:
Видеоряд с украинского трекера Гуртом, скачал fox-1917
Сэмпл: https://www.sendspace.com/file/2q4h8m
Качество видео: HDRip-AVC
Формат видео: MKV
Видео: 1024x576, 23.976 fps, AVC, 2399 Kbps
Аудио 1: 48 KHz, AC3, 2 ch, 192 Kbps - DVO Премьер
Аудио 2: 48 KHz, AC3, 6 ch, 448 Kbps - AVO Ю. Живов
Аудио 3: 48 KHz, AC3, 2 ch, 192 Kbps - Original Eng
Формат субтитров: softsub (SRT)

MediaInfo

GeneralUnique ID                                : 180777572008388186194591573052022106895 (0x88007E7192339BFB8647C0875680AB0F)Complete name                            : C:\Users\Sergei\Downloads\Мертвец в колледже (Премьер, Живов, Eng).mkvFormat                                   : MatroskaFormat version                           : Version 2File size                                : 2.13 GiBDuration                                 : 1h 34mnOverall bit rate                         : 3 233 KbpsEncoded date                             : UTC 2023-06-15 05:08:49Writing application                      : mkvmerge v5.4.0 ('Piper') built on Mar 10 2012 13:34:39Writing library                          : libebml v1.2.3 + libmatroska v1.3.0
VideoID : 1Format : AVCFormat/Info : Advanced Video CodecFormat profile : High@L4.1Format settings, CABAC : YesFormat settings, ReFrames : 8 framesCodec ID : V_MPEG4/ISO/AVCDuration : 1h 34mnBit rate : 2 399 KbpsWidth : 1 024 pixelsHeight : 576 pixelsDisplay aspect ratio : 16:9Frame rate mode : ConstantFrame rate : 23.976 (24000/1001) fpsColor space : YUVChroma subsampling : 4:2:0Bit depth : 8 bitsScan type : ProgressiveBits/(Pixel*Frame) : 0.170Stream size : 1.54 GiB (72%)Writing library : x264 core 157 r2969 d4099ddEncoding settings : cabac=1 / ref=8 / deblock=1:-3:-3 / analyse=0x3:0x133 / me=umh / subme=10 / psy=1 / psy_rd=1.00:0.15 / mixed_ref=1 / me_range=32 / chroma_me=1 / trellis=2 / 8x8dct=1 / cqm=0 / deadzone=21,11 / fast_pskip=0 / chroma_qp_offset=-3 / threads=18 / lookahead_threads=3 / sliced_threads=0 / nr=0 / decimate=1 / interlaced=0 / bluray_compat=0 / constrained_intra=0 / bframes=8 / b_pyramid=2 / b_adapt=2 / b_bias=0 / direct=3 / weightb=1 / open_gop=0 / weightp=2 / keyint=240 / keyint_min=23 / scenecut=40 / intra_refresh=0 / rc_lookahead=60 / rc=2pass / mbtree=1 / bitrate=2399 / ratetol=1.0 / qcomp=0.60 / qpmin=0 / qpmax=69 / qpstep=4 / cplxblur=20.0 / qblur=0.5 / vbv_maxrate=31250 / vbv_bufsize=31250 / nal_hrd=none / filler=0 / ip_ratio=1.40 / aq=1:1.00Language : EnglishDefault : YesForced : NoStatistics Tags Issue : mkvmerge v53.0.0 ('Fool's Gold') 64-bit 2023-03-02 14:47:00 / mkvmerge v5.4.0 ('Piper') built on Mar 10 2012 13:34:39 2023-06-15 05:08:49FromStats_BitRate : 2398895FromStats_Duration : 01:34:22.073000000FromStats_FrameCount : 135754FromStats_StreamSize : 1697839981
Audio #1ID : 2Format : AC-3Format/Info : Audio Coding 3Mode extension : CM (complete main)Format settings, Endianness : BigCodec ID : A_AC3Duration : 1h 34mnBit rate mode : ConstantBit rate : 192 KbpsChannel(s) : 2 channelsChannel positions : Front: L RSampling rate : 48.0 KHzFrame rate : 31.250 fps (1536 spf)Compression mode : LossyStream size : 130 MiB (6%)Title : DVO ПремьерLanguage : RussianDefault : YesForced : No
Audio #2ID : 3Format : AC-3Format/Info : Audio Coding 3Mode extension : CM (complete main)Format settings, Endianness : BigCodec ID : A_AC3Duration : 1h 34mnBit rate mode : ConstantBit rate : 448 KbpsChannel(s) : 6 channelsChannel positions : Front: L C R, Side: L R, LFESampling rate : 48.0 KHzFrame rate : 31.250 fps (1536 spf)Compression mode : LossyStream size : 302 MiB (14%)Title : AVO Ю. ЖивовLanguage : RussianDefault : NoForced : No
Audio #3ID : 4Format : AC-3Format/Info : Audio Coding 3Mode extension : CM (complete main)Format settings, Endianness : BigCodec ID : A_AC3Duration : 1h 34mnBit rate mode : ConstantBit rate : 192 KbpsChannel(s) : 2 channelsChannel positions : Front: L RSampling rate : 48.0 KHzFrame rate : 31.250 fps (1536 spf)Compression mode : LossyStream size : 130 MiB (6%)Language : EnglishDefault : NoForced : NoStatistics Tags Issue : mkvmerge v53.0.0 ('Fool's Gold') 64-bit 2023-03-02 14:47:00 / mkvmerge v5.4.0 ('Piper') built on Mar 10 2012 13:34:39 2023-06-15 05:08:49FromStats_BitRate : 192000FromStats_Duration : 01:34:22.112000000FromStats_FrameCount : 176941FromStats_StreamSize : 135890688
TextID : 5Format : UTF-8Codec ID : S_TEXT/UTF8Codec ID/Info : UTF-8 Plain TextLanguage : EnglishDefault : NoForced : NoStatistics Tags Issue : mkvmerge v53.0.0 ('Fool's Gold') 64-bit 2023-03-02 14:47:00 / mkvmerge v5.4.0 ('Piper') built on Mar 10 2012 13:34:39 2023-06-15 05:08:49FromStats_BitRate : 93FromStats_Duration : 01:33:47.497000000FromStats_FrameCount : 2042FromStats_StreamSize : 66093

Скриншоты

[Profile]  [PM] 
Display posts:    
Reply to topic

Current time is: 20-Jul 03:45

All times are UTC + 2



You cannot post new topics in this forum
You cannot reply to topics in this forum
You cannot edit your posts in this forum
You cannot delete your posts in this forum
You cannot vote in polls in this forum
You cannot attach files in this forum
You cannot download files in this forum