Стриптиз за решеткой / Смертник / Time Served (Глен Питре / Glen Pitre) [1999, США, триллер, драма, WEB-DLRip-AVC] AVO (Андрей Дольский) + Sub Eng + Original Eng

Reply to topic
 
Author
Message

Satyr ®

Gender: Unknown

Longevity: 15 years

Posts: 22031

Reputation: 56 [+] [-]

Satyr · Post 16-Jun-2023 02:05

[Quote] 

Стриптиз за решеткой / Смертник / Time Served
Страна: США
Жанр: триллер, драма
Год выпуска: 1999
Продолжительность: 01:32:40
Перевод: Авторский (одноголосый закадровый) Андрей Дольский
Субтитры: английские
Оригинальная аудиодорожка: английский
Режиссер: Глен Питре / Glen Pitre
В ролях: Кэтрин Оксенберг
Джефф Фэйи
Луиза Флетчер
Бо Хопкинс
Джеймс Хэнди
Ларри Манетти
Лурдес Колон
Скотт Шумахер
Зэк Грэй
Описание: Спасая жизнь матери, маленький Джейсон стреляет в разъяренного отца. Полиция, не утруждая себя долгим расследованием, принимает за правду «чистосердечное» признание молодой вдовы в убийстве. После формального судебного процесса, Саре вынесен приговор — восемь лет тюрьмы. Где искать справедливость невиновной?...
Доп. информация: Дорожку с переводом синхронизировал ale_x2008
За оцифрованную с VHS дорожку благодарим - manhunt clon

Релиз
Сэмпл: https://www.sendspace.com/file/hbvm3l
Качество видео: WEB-DLRip-AVC
Формат видео: MKV
Видео: MPEG4 Video (H264) 928x672 25fps Bit rate 2 231 kb/s
Аудио: Dolby AC3 48000Hz 2 ch (МОНО) 192kbps
Аудио 2: AAC 48000Hz 2 ch 128 kb/s English
Формат субтитров: softsub (SRT)

MediaInfo

Стриптиз за решеткой (Time Served) WEB-DLRip-AVC [by ale_x2008].mkvFormat                         : MatroskaFormat version                 : Version 4File size                      : 1.65 GiBDuration                       : 1 h 32 minOverall bit rate               : 2 554 kb/sFrame rate                     : 25.000 FPSEncoded date                   : 2023-06-12 19:52:56 UTCWriting application            : mkvmerge v71.0.0 ('Altitude') 64-bitWriting library                : libebml v1.4.4 + libmatroska v1.7.1
VideoID : 1Format : AVCFormat/Info : Advanced Video CodecFormat profile : High@L4.1Format settings : CABAC / 16 Ref FramesFormat settings, CABAC : YesFormat settings, Reference fra : 16 framesCodec ID : V_MPEG4/ISO/AVCDuration : 1 h 32 minBit rate : 2 231 kb/sWidth : 928 pixelsHeight : 672 pixelsDisplay aspect ratio : 1.381Frame rate mode : ConstantFrame rate : 25.000 FPSColor space : YUVChroma subsampling : 4:2:0Bit depth : 8 bitsScan type : ProgressiveBits/(Pixel*Frame) : 0.143Stream size : 1.44 GiB (87%)Writing library : x264 core 148 r2638 7599210Encoding settings : cabac=1 / ref=16 / deblock=1:-3:-3 / analyse=0x3:0x133 / me=umh / subme=9 / psy=1 / psy_rd=1.00:0.00 / mixed_ref=1 / me_range=32 / chroma_me=1 / trellis=2 / 8x8dct=1 / cqm=0 / deadzone=21,11 / fast_pskip=1 / chroma_qp_offset=-2 / threads=18 / lookahead_threads=4 / sliced_threads=0 / nr=0 / decimate=1 / interlaced=0 / bluray_compat=0 / constrained_intra=0 / bframes=10 / b_pyramid=0 / b_adapt=2 / b_bias=0 / direct=3 / weightb=1 / open_gop=0 / weightp=2 / keyint=250 / keyint_min=25 / scenecut=40 / intra_refresh=0 / rc=crf / mbtree=0 / crf=20.0 / qcomp=0.60 / qpmin=0 / qpmax=69 / qpstep=4 / ip_ratio=1.40 / pb_ratio=1.30 / aq=1:1.00Default : YesForced : No
Audio #1ID : 2Format : AC-3Format/Info : Audio Coding 3Commercial name : Dolby DigitalCodec ID : A_AC3Duration : 1 h 32 minBit rate mode : ConstantBit rate : 192 kb/sChannel(s) : 2 channelsChannel layout : L RSampling rate : 48.0 kHzFrame rate : 31.250 FPS (1536 SPF)Compression mode : LossyStream size : 127 MiB (8%)Language : RussianService kind : Complete MainDefault : YesForced : No
Audio #2ID : 3Format : AAC LCFormat/Info : Advanced Audio Codec Low ComplexityCodec ID : A_AAC-2Duration : 1 h 32 minBit rate : 128 kb/sChannel(s) : 2 channelsChannel layout : L RSampling rate : 48.0 kHzFrame rate : 46.875 FPS (1024 SPF)Compression mode : LossyStream size : 84.8 MiB (5%)Language : EnglishDefault : NoForced : No
TextID : 4Format : UTF-8Codec ID : S_TEXT/UTF8Codec ID/Info : UTF-8 Plain TextDuration : 1 h 30 minBit rate : 51 b/sFrame rate : 0.196 FPSCount of elements : 1065Stream size : 34.5 KiB (0%)Language : EnglishDefault : NoForced : No

Скриншоты



[Profile]  [PM] 
Display posts:    
Reply to topic

Current time is: 20-Jul 03:44

All times are UTC + 2



You cannot post new topics in this forum
You cannot reply to topics in this forum
You cannot edit your posts in this forum
You cannot delete your posts in this forum
You cannot vote in polls in this forum
You cannot attach files in this forum
You cannot download files in this forum