Охотники за золотой коброй / I cacciatori del cobra d\'oro / Hunters of the Golden Cobra (Антонио Маргерити / Antonio Margheriti) [1982, Италия, США, боевик, криминал, приключения, военный, BDRip-AVC] AVO Леонид Володарский + Sub Eng + Original Eng

Reply to topic
 
Author
Message

Satyr ®

Gender: Unknown

Longevity: 15 years

Posts: 22045

Reputation: 56 [+] [-]

Satyr · Post 16-Jun-2023 02:05

[Quote] 

Охотники за золотой коброй / I cacciatori del cobra d'oro / Hunters of the Golden Cobra
English Version
Страна: Италия, США
Жанр: боевик, криминал, приключения, военный
Год выпуска: 1982
Продолжительность: 01:34:14
Перевод: Авторский (одноголосый закадровый) Леонид Володарский
Субтитры: английские
Оригинальная аудиодорожка: английский
Режиссер: Антонио Маргерити / Antonio Margheriti
В ролях: Дэвид Уорбек
Альманта Суска
Лучано Пигоцци
Протасио Ди
Рене Абадеза
Джон Стайнер
Эдвард Мэнникс
Описание: Американский солдат и агент британской разведки пытаются найти древнюю реликвию под названием «Золотая кобра», которая, по слухам, обладает сверхъестественными способностями.
За дорожку спасибо zalexx
Сэмпл: https://www.sendspace.com/file/mghaer
Качество видео: BDRip-AVC [HUNTERS OF THE GOLDEN COBRA CG.mkv]
Формат видео: MKV
Видео: MPEG4 Video (H264) 944x400 23.976fps Bit rate 2 346 kb/s
Аудио: Dolby AC3 48000Hz 2 ch 192kbps
Формат субтитров: PGS

MediaInfo

Охотники за золотой коброй I cacciatori del cobra d'oro (1982) (by Edich2).mkvFormat                      : MatroskaFormat version              : Version 4File size                   : 1.80 GiBDuration                    : 1 h 34 minOverall bit rate            : 2 741 kb/sFrame rate                  : 23.976 FPSEncoded date                : 2023-06-06 13:45:23 UTCWriting application         : mkvmerge v71.0.0 ('Altitude') 64-bitWriting library             : libebml v1.4.4 + libmatroska v1.7.1
VideoID : 1Format : AVCFormat/Info : Advanced Video CodecFormat profile : High@L4.1Format settings : CABAC / 16 Ref FramesFormat settings, CABAC : YesFormat settings, Reference : 16 framesCodec ID : V_MPEG4/ISO/AVCDuration : 1 h 34 minBit rate : 2 346 kb/sWidth : 944 pixelsHeight : 400 pixelsDisplay aspect ratio : 2.35:1Frame rate mode : ConstantFrame rate : 23.976 (24000/1001) FPSColor space : YUVChroma subsampling : 4:2:0Bit depth : 8 bitsScan type : ProgressiveBits/(Pixel*Frame) : 0.259Stream size : 1.54 GiB (86%)Writing library : x264 core 146 r2538 121396cEncoding settings : cabac=1 / ref=16 / deblock=1:-3:-3 / analyse=0x3:0x133 / me=umh / subme=9 / psy=1 / psy_rd=1.00:0.00 / mixed_ref=1 / me_range=32 / chroma_me=1 / trellis=2 / 8x8dct=1 / cqm=0 / deadzone=21,11 / fast_pskip=1 / chroma_qp_offset=-2 / threads=6 / lookahead_threads=1 / sliced_threads=0 / nr=0 / decimate=1 / interlaced=0 / bluray_compat=0 / constrained_intra=0 / bframes=10 / b_pyramid=0 / b_adapt=2 / b_bias=0 / direct=3 / weightb=1 / open_gop=0 / weightp=2 / keyint=250 / keyint_min=23 / scenecut=40 / intra_refresh=0 / rc=crf / mbtree=0 / crf=20.0 / qcomp=0.60 / qpmin=0 / qpmax=69 / qpstep=4 / ip_ratio=1.40 / pb_ratio=1.30 / aq=1:1.00Default : YesForced : No
Audio #1ID : 2Format : AC-3Format/Info : Audio Coding 3Commercial name : Dolby DigitalCodec ID : A_AC3Duration : 1 h 34 minBit rate mode : ConstantBit rate : 192 kb/sChannel(s) : 2 channelsChannel layout : L RSampling rate : 48.0 kHzFrame rate : 31.250 FPS (1536 SPF)Compression mode : LossyStream size : 129 MiB (7%)Language : RussianService kind : Complete MainDefault : YesForced : No
Audio #2ID : 3Format : AC-3Format/Info : Audio Coding 3Commercial name : Dolby DigitalCodec ID : A_AC3Duration : 1 h 34 minBit rate mode : ConstantBit rate : 192 kb/sChannel(s) : 2 channelsChannel layout : L RSampling rate : 48.0 kHzFrame rate : 31.250 FPS (1536 SPF)Compression mode : LossyStream size : 129 MiB (7%)Language : EnglishService kind : Complete MainDefault : NoForced : No
TextID : 4Format : PGSMuxing mode : zlibCodec ID : S_HDMV/PGSCodec ID/Info : Picture based subtitle format used on BDs/HD-DVDsDuration : 1 h 30 minBit rate : 18.0 kb/sFrame rate : 0.252 FPSCount of elements : 1370Stream size : 11.7 MiB (1%)Language : EnglishDefault : NoForced : No

Скриншоты



[Profile]  [PM] 
Display posts:    
Reply to topic

Current time is: 25-Jul 06:51

All times are UTC + 2



You cannot post new topics in this forum
You cannot reply to topics in this forum
You cannot edit your posts in this forum
You cannot delete your posts in this forum
You cannot vote in polls in this forum
You cannot attach files in this forum
You cannot download files in this forum