Человек тьмы 3: Умри, Человек тьмы / Darkman III: Die Darkman Die (Брэдфорд Мэй / Bradford May) [1996, США, Канада, фантастика, боевик, BDRip] DVO (Премьер Видео) + Original Eng

Reply to topic
 
Author
Message

Satyr ®

Gender: Unknown

Longevity: 15 years

Posts: 22031

Reputation: 56 [+] [-]

Satyr · Post 16-Jun-2023 02:05

[Quote] 

Человек тьмы 3: Умри, Человек тьмы / Darkman III: Die Darkman Die
Страна: США, Канада
Жанр: фантастика, боевик
Год выпуска: 1996
Продолжительность: 01:26:54
Перевод: Профессиональный (двухголосый закадровый) Премьер Видео
Субтитры: нет
Оригинальная аудиодорожка: английский
Режиссер: Брэдфорд Мэй / Bradford May
В ролях: Арнольд Вослу, Джефф Фэйхи, Дарлэнн Флюгел, Роксанн Доусон, Найджел Беннетт
Описание: Когда-то давно доктор Уэстлэйк был обезображен гангстерами и превратился в неуловимого мастера маскировки, отважного мстителя - «Человека Тьмы». В этот раз ему снова противостоит опасный и сильный противник - безжалостный преступник Питер Рукер.
Коварный злодей хочет найти таинственный источник сверхъестественной силы героя и устраивает ему ловушку. Оказавшись в западне, человек тьмы вступает в свой последний и самый отчаянный бой с бандой Рукера...
Доп. информация:
Видеоряд отсюда https://torrentsland.com.ua/forum/viewtopic.php?t=5866483
Звуковую дорожку с лицензионной VHS оцифровал Fikaloid.
Синхронизацию дорожки сделал JUSTKANT.
Перевод на трекере впервые.
Мужские роли озвучивал Всеволод Кузнецов.
Сэмпл: https://www.sendspace.com/file/tbzmbo
Качество видео: BDRip
Формат видео: AVI
Видео: 704x400, 23.976 fps, MPEG-4 Visual, 1997 Kbps, XviD 67
Аудио 1: 48 KHz, AC3, 2 ch, 192 Kbps
Аудио 2: 48 KHz, AC3, 2 ch, 192 Kbps

MediaInfo

GeneralComplete name                            : C:\Users\Sergei\Downloads\Человек тьмы 3 (Премьер + Eng).aviFormat                                   : AVIFormat/Info                              : Audio Video InterleaveFile size                                : 1.45 GiBDuration                                 : 1h 26mnOverall bit rate                         : 2 395 KbpsMovie name                               : Человек тьмы III / Darkman III: Die Darkman Die (1996) BDRipDirector                                 : by ale_X2008Genre                                    : ужасы, фантастика, боевикWriting application                      : VirtualDubMod 1.5.10.2 (build 2540/release)Writing library                          : VirtualDubMod build 2540/releaseCopyright                                : Edich2Comment                                  : torrentsland.com.ua
VideoID : 0Format : MPEG-4 VisualFormat profile : Advanced Simple@L5Format settings, BVOP : 1Format settings, QPel : NoFormat settings, GMC : No warppointsFormat settings, Matrix : CustomCodec ID : XVIDCodec ID/Hint : XviDDuration : 1h 26mnBit rate : 1 997 KbpsWidth : 704 pixelsHeight : 400 pixelsDisplay aspect ratio : 16:9Frame rate : 23.976 (24000/1001) fpsColor space : YUVChroma subsampling : 4:2:0Bit depth : 8 bitsScan type : ProgressiveCompression mode : LossyBits/(Pixel*Frame) : 0.296Stream size : 1.21 GiB (83%)Writing library : XviD 65
Audio #1ID : 1Format : AC-3Format/Info : Audio Coding 3Mode extension : CM (complete main)Format settings, Endianness : BigCodec ID : 2000Duration : 1h 26mnBit rate mode : ConstantBit rate : 192 KbpsChannel(s) : 2 channelsChannel positions : Front: L RSampling rate : 48.0 KHzFrame rate : 31.250 fps (1536 spf)Compression mode : LossyStream size : 119 MiB (8%)Alignment : Split accross interleavesInterleave, duration : 42 ms (1.00 video frame)Interleave, preload duration : 500 ms
Audio #2ID : 2Format : AC-3Format/Info : Audio Coding 3Mode extension : CM (complete main)Format settings, Endianness : BigCodec ID : 2000Duration : 1h 26mnBit rate mode : ConstantBit rate : 192 KbpsChannel(s) : 2 channelsChannel positions : Front: L RSampling rate : 48.0 KHzFrame rate : 31.250 fps (1536 spf)Compression mode : LossyStream size : 119 MiB (8%)Alignment : Split accross interleavesInterleave, duration : 42 ms (1.00 video frame)Interleave, preload duration : 500 ms

Скриншоты

[Profile]  [PM] 
Display posts:    
Reply to topic

Current time is: 20-Jul 03:44

All times are UTC + 2



You cannot post new topics in this forum
You cannot reply to topics in this forum
You cannot edit your posts in this forum
You cannot delete your posts in this forum
You cannot vote in polls in this forum
You cannot attach files in this forum
You cannot download files in this forum