Воскрешение / Resurrection (Рассел Малкэй / Russell Mulcahy) [1999, Канада, США, Триллер, VHSRip] DVO (АСГ "Видеофильм")

Reply to topic
 
Author
Message

Satyr ®

Gender: Unknown

Longevity: 15 years

Posts: 22031

Reputation: 56 [+] [-]

Satyr · Post 16-Jun-2023 02:05

[Quote] 

Воскрешение / Resurrection
Страна: Канада, США
Жанр: Триллер
Год выпуска: 1999
Продолжительность: 01:43:31
Перевод: Профессиональный (двухголосый закадровый) АСГ "Видеофильм"
Субтитры: нет
Режиссер: Рассел Малкэй / Russell Mulcahy
В ролях:
Кристофер Ламберт — Джон Прудом
Лиленд Орсер — Детектив Эндрю Холлинсворт
Барбара Тайсон — Сара Прудом
Патрик Чилверс — офицер
Джейн Иствуд — Долорес Кунец
Дэвид Кроненберг — Отец Роузелл
Дарен Энкин — Джон Ордвэй
Дэвид Ферри — мистер Бреслер
Яан Филипс — Стэнли Хэллоуэй
Рик Фокс — Шолфилд
Сильвана Гатика — мать ребёнка
Барбара Гордон — судья Сеерс
Ротафорд Грэй — Джэйлор
Роберт Джой — Джеральд Демус
Питер Макнилл — капитан Уиппли
Описание: Детектив Джон Прудомм получает задание расследовать серию убийств — маньяк отрезает у жертв то ногу, то руку, то голову. Не понимая мотивов преступлений, полиция бессильно наблюдает, как психопат собирает человеческое тело из кусков.
Тем временем Прудомм находит убийцу. Его причастность к убийствам очевидна, но не доказана. После суда он с улыбкой выходит на свободу, чтобы продолжить свои кровавые деяния. Но теперь он осторожнее, и поймать его будет гораздо труднее.
Сэмпл: https://wdho.ru/045e479
Качество видео: VHSRip
Формат видео: AVI
Видео: XviD, 720x576, 4:3, 25 fps, 2048 kbps
Аудио: AC3, 44.1 khz, 192 kbps, 2ch

MediaInfo

GeneralComplete name                    : C:Resurrection_1999.aviFormat                           : AVIFormat/Info                      : Audio Video InterleaveFile size                        : 1.47 GiBDuration                         : 1h 43mnOverall bit rate                 : 2032 KbpsWriting library                  : VirtualDub2 build 44282/release
VideoFormat : MPEG-4 VisualFormat profile : Streaming Video@L1Format settings, BVOP : YesFormat settings, QPel : NoFormat settings, GMC : No warppointsFormat settings, Matrix : CustomCodec ID : XVIDCodec ID/Hint : XviDDuration : 1h 43mnBit rate : 1831 KbpsWidth : 720 pixelsHeight : 576 pixelsDisplay aspect ratio : 5/4Frame rate : 25.000 fpsStandard : PALResolution : 8 bitsColorimetry : 4:2:0Scan type : ProgressiveBits/(Pixel*Frame) : 0.177Stream size : 1.32 GiB (90%)Writing library : XviD 64
AudioFormat : AC-3Format/Info : Audio Coding 3Codec ID : 2000Duration : 1h 43mnBit rate mode : ConstantBit rate : 192 KbpsChannel(s) : 2 channelsChannel positions : L RSampling rate : 44.1 KHzStream size : 142 MiB (9%)Alignment : Aligned on interleavesInterleave, duration : 40 ms (1.00 video frame)Interleave, preload duration : 521 ms

Скриншот c названием фильма

Скриншоты

[Profile]  [PM] 
Display posts:    
Reply to topic

Current time is: 20-Jul 02:31

All times are UTC + 2



You cannot post new topics in this forum
You cannot reply to topics in this forum
You cannot edit your posts in this forum
You cannot delete your posts in this forum
You cannot vote in polls in this forum
You cannot attach files in this forum
You cannot download files in this forum