Век Адалин / The Age of Adaline (Ли Толанд Кригер / Lee Toland Krieger) [2015, США, Канада, драма, мелодрама, фэнтези, BDRemux 1080p] Dub (iTunes) + Sub Rus, Eng + Original Eng

Reply to topic
 
Author
Message

Faust ®

Gender: Unknown

Longevity: 12 years

Posts: 23187

Reputation: 0 [+] [-]

Faust · Post 16-Jun-2023 02:05

[Quote] 

Век Адалин / The Age of Adaline
За последний век мир изменился. Адалин - нет
- Страна: США, Канада
Жанр: драма, мелодрама, фэнтези
Год выпуска: 2015
Продолжительность: 01:52:44
Перевод: Профессиональный (дублированный) iTunes
Оригинальная аудиодорожка: Eng
Субтитры: Rus (Forced, Full), Eng (Full, SDH, SDH-Colored)-Режиссер: Ли Толанд Кригер / Lee Toland Krieger
В ролях:
Блейк Лайвли | Blake Lively
Михил Хаушман, Кэти Бейкер, Харрисон Форд, Эллен Бёрстин, Аманда Крю, Линда Бойд, Хью Росс, Ричард Хэрмон, Фульвио Чечере, Анджали Джай, Хиро Канагава, Питер Дж. Грэй, Изабель Пирс, Кит Ричардсон, Джейн Крэйвен...-Описание:По сюжету главная героиня родилась вместе с XX веком и живет на свете уже сто лет, но при этом не стареет. Несмотря на свою долгую жизнь, Адалин так и не смогла найти любимого человека. Однако наконец-то она встречает мужчину, ради которого сможет снова стать смертной и состариться вместе с ним.-
IMDB 7.2
Sample-Качество видео: BDRemux 1080p | The Age of Adaline 2015 1080p Hybrid ReMuX AVC TrueHD 7.1-BiZKiT | Video JPN PQ (Prime Quality)
Формат видео: MKV
Видео: AVC 36.0 Mb/s 1920 x 1080 (1.778) 23.976 fps
Аудио 1: AC-3 384 kb/s 6 channels, 48.0 kHz | RUS DUB iTunes
Аудио 2: Dolby TrueHD with Dolby Atmos LP FBA 4414 kb/s 8 channels, 48.0 kHz | ENG
Аудио 2: AC-3 640 kb/s 6 channels, 48.0 kHz | ENG
Формат субтитров: softsub (SRT)

MediaInfo

Format : Matroska
Format version : Version 4
File size : 32.6 GiB
Duration : 1 h 52 min
Overall bit rate mode : Variable
Overall bit rate : 41.3 Mb/s
Movie name : The Age of Adaline (2015).Remux1080p [torrentsland.com.ua]
Encoded date : UTC 2023-06-11 20:17:03
Writing application : mkvmerge v34.0.0 ('Sight and Seen') 64-bit
Writing library : libebml v1.3.7 + libmatroska v1.5.0
Cover : Yes
Attachments : cover.jpg
Video
ID : 1
Format : AVC
Format/Info : Advanced Video Codec
Format profile : High@L4.1
Format settings : CABAC / 4 Ref Frames
Format settings, CABAC : Yes
Format settings, Reference frames : 4 frames
Codec ID : V_MPEG4/ISO/AVC
Duration : 1 h 52 min
Bit rate mode : Variable
Bit rate : 36.0 Mb/s
Width : 1 920 pixels
Height : 1 080 pixels
Display aspect ratio : 16:9
Frame rate mode : Constant
Frame rate : 23.976 (24000/1001) FPS
Color space : YUV
Chroma subsampling : 4:2:0
Bit depth : 8 bits
Scan type : Progressive
Bits/(Pixel*Frame) : 0.724
Stream size : 28.2 GiB (87%)
Title : The Age of Adaline (2015).Remux1080p [torrentsland.com.ua]
Language : English
Default : Yes
Forced : No
Audio #1
ID : 2
Format : AC-3
Format/Info : Audio Coding 3
Commercial name : Dolby Digital
Codec ID : A_AC3
Duration : 1 h 52 min
Bit rate mode : Constant
Bit rate : 384 kb/s
Channel(s) : 6 channels
Channel layout : L R C LFE Ls Rs
Sampling rate : 48.0 kHz
Frame rate : 31.250 FPS (1536 SPF)
Compression mode : Lossy
Stream size : 309 MiB (1%)
Title : DUB (iTunes)
Language : Russian
Service kind : Complete Main
Default : Yes
Forced : No
Audio #2
ID : 3
Format : MLP FBA 16-ch
Format/Info : Meridian Lossless Packing FBA with 16-channel presentation
Commercial name : Dolby TrueHD with Dolby Atmos
Codec ID : A_TRUEHD
Duration : 1 h 52 min
Bit rate mode : Variable
Bit rate : 4 414 kb/s
Maximum bit rate : 5 490 kb/s
Channel(s) : 8 channels
Channel layout : L R C LFE Ls Rs Lb Rb
Sampling rate : 48.0 kHz
Frame rate : 1 200.000 FPS (40 SPF)
Compression mode : Lossless
Stream size : 3.47 GiB (11%)
Title : Original MLP FBA / 8 channels
Language : English
Default : No
Forced : No
Number of dynamic objects : 11
Bed channel count : 1 channel
Bed channel configuration : LFE
Audio #3
ID : 4
Format : AC-3
Format/Info : Audio Coding 3
Commercial name : Dolby Digital
Codec ID : A_AC3
Duration : 1 h 52 min
Bit rate mode : Constant
Bit rate : 640 kb/s
Channel(s) : 6 channels
Channel layout : L R C LFE Ls Rs
Sampling rate : 48.0 kHz
Frame rate : 31.250 FPS (1536 SPF)
Compression mode : Lossy
Stream size : 515 MiB (2%)
Title : Original
Language : English
Service kind : Complete Main
Default : No
Forced : No
Text #1
ID : 5
Format : UTF-8
Codec ID : S_TEXT/UTF8
Codec ID/Info : UTF-8 Plain Text
Duration : 4 min 31 s
Bit rate : 9 b/s
Frame rate : 0.018 FPS
Count of elements : 5
Stream size : 313 Bytes (0%)
Title : Forced
Language : Russian
Default : Yes
Forced : No
Text #2
ID : 6
Format : UTF-8
Codec ID : S_TEXT/UTF8
Codec ID/Info : UTF-8 Plain Text
Duration : 1 h 46 min
Bit rate : 84 b/s
Frame rate : 0.190 FPS
Count of elements : 1206
Stream size : 66.0 KiB (0%)
Title : Full
Language : Russian
Default : No
Forced : No
Text #3
ID : 7
Format : UTF-8
Codec ID : S_TEXT/UTF8
Codec ID/Info : UTF-8 Plain Text
Duration : 1 h 44 min
Bit rate : 55 b/s
Frame rate : 0.176 FPS
Count of elements : 1104
Stream size : 42.2 KiB (0%)
Title : Full
Language : English
Default : No
Forced : No
Text #4
ID : 8
Format : UTF-8
Codec ID : S_TEXT/UTF8
Codec ID/Info : UTF-8 Plain Text
Duration : 1 h 44 min
Bit rate : 60 b/s
Frame rate : 0.231 FPS
Count of elements : 1449
Stream size : 46.3 KiB (0%)
Title : SDH
Language : English
Default : No
Forced : No
Text #5
ID : 9
Format : UTF-8
Codec ID : S_TEXT/UTF8
Codec ID/Info : UTF-8 Plain Text
Duration : 1 h 44 min
Bit rate : 70 b/s
Frame rate : 0.231 FPS
Count of elements : 1447
Stream size : 54.0 KiB (0%)
Title : SDH-Colored
Language : English
Default : No
Forced : No
Menu
00:00:00.000 : en:00:00:00.000
00:16:53.137 : en:00:16:53.137
00:28:10.898 : en:00:28:10.898
00:46:45.594 : en:00:46:45.594
00:59:51.922 : en:00:59:51.922
01:13:44.295 : en:01:13:44.295
01:31:29.109 : en:01:31:29.109
01:43:22.947 : en:01:43:22.947

Скриншоты




[Profile]  [PM] 
Display posts:    
Reply to topic

Current time is: 20-Jul 02:30

All times are UTC + 2



You cannot post new topics in this forum
You cannot reply to topics in this forum
You cannot edit your posts in this forum
You cannot delete your posts in this forum
You cannot vote in polls in this forum
You cannot attach files in this forum
You cannot download files in this forum