Тор: Любовь и гром / Thor: Love and Thunder (Тайка Вайтити / Taika Waititi) [2022, Австралия, США, фантастика, фэнтези, боевик, мелодрама, комедия, приключения, WEB-DL 720p] [IMAX] Dub + 3x MVO (Jaskier, NewComers, TVShows) + Dub (Ukr) + Original (En

Reply to topic
 
Author
Message

Faust ®

Gender: Unknown

Longevity: 12 years

Posts: 23187

Reputation: 0 [+] [-]

Faust · Post 16-Jun-2023 10:15

[Quote] 

Тор: Любовь и гром / Thor: Love and Thunder
[IMAX]

«Not every god has a plan / Не у каждого бога есть план»
Страна: США
Жанр: Фантастика, фэнтези, боевик, мелодрама, комедия, приключения
Год выпуска: 2022
Продолжительность: 01:58:44
Перевод 1: Профессиональный (дублированный) | Cinema Tone Production
Перевод 2: Профессиональный (многоголосый закадровый) | Jaskier
Перевод 3: Любительский (многоголосый закадровый) | NewComers
Перевод 4: Профессиональный (многоголосый закадровый) | TVShows
Оригинальная аудиодорожка: Английский
Субтитры: Русские (Форсированные, Полные), Украинские (Форсированные, Полные), Английские (Full, SDH, Commentary by Writer / Director Taika Waititi)--Режиссер: Пейтон Рид / Peyton Reed--В ролях: Крис Хемсворт, Натали Портман, Кристиан Бэйл, Тесса Томпсон, Тайка Вайтити, Рассел Кроу, Джейми Александер, Крис Пратт, Дэйв Батиста, Карен Гиллан...--Описание: После грандиозной битвы, в которой Мстители и их союзники смогли одержать верх над Таносом, асгардский бог грома Тор решил, что для него настало время изменить свою жизнь. После гибели Локи и поражения от Таноса Тор не считал, что может нести ответственность за спасенных им асгардцев. Он спокойно передал бразды правления Новым Асгардом Валькирии, а сам присоединился к Стражам Галактики, решив отправиться в путешествие по просторам космоса. Покидая Землю, Тор не предполагал, что рано или поздно ему придется вернуться, и уж совсем не ожидал тех невероятных изменений, которые произойдут с его возлюбленной Джейн Фостер.-- --Качество видео: WEB-DL 720p
Формат видео: MKV
Видео: AVC, 1280x720p (16:9), 3356 kbps, 23.976 fps.
Аудио 1: AC3 Dolby Digital, 3/2 (L,C,R,l,r) + LFE ch, 48.0 KHz, 448 Kbps. (Дубляж)
Аудио 2: AC3 Dolby Digital, 3/2 (L,C,R,l,r) + LFE ch, 48.0 KHz, 384 Kbps. (MVO. Jaskier)
Аудио 3: E-AC3 Dolby Digital Plus, 3/2 (L,C,R,l,r) + LFE ch, 48.0 KHz, 768 Kbps. (MVO. NewComers)
Аудио 4: AC3 Dolby Digital, 2/0 (L,R) ch, 48 kHz, 192 kbps. (MVO. TVShows)
Аудио 5: E-AC3 Dolby Digital, 3/2 (L,C,R,l,r) + LFE ch, 48.0 KHz, 256 Kbps. (Дубляж. Украинский)
Аудио 6: AC3 Dolby Digital Plus with Dolby Atmos, 3/2 (L,C,R,l,r) + LFE ch, 48.0 KHz, 768 Kbps. (Original. English)
Аудио 7: AC3 Dolby Digital, 2/0 (L,R) ch, 48 kHz, 192 kbps. (Commentary by Writer / Director Taika Waititi)
Формат субтитров: softsub (SRT)
Сэмпл

Скриншоты

MediaInfo/x264

General
Unique ID : 183475302178051797404785068339699573683 (0x8A080ECF63D8BD0EA756BC0EFD22E3B3)
Complete name : Thor.Love.and.Thunder.2022.IMAX.WEB-DL.720p.mkv
Format : Matroska
Format version : Version 4
File size : 5.29 GiB
Duration : 2 h 1 min
Overall bit rate mode : Variable
Overall bit rate : 6 251 kb/s
Frame rate : 23.976 FPS
Movie name : Thor: Love and Thunder (2022).IMAX.WEB-DL.720p
Encoded date : 2023-06-01 19:24:38 UTC
Writing application : mkvmerge v8.1.0 ('Psychedelic Postcard') 64bit
Writing library : libebml v1.3.1 + libmatroska v1.4.2
Cover : Yes
Attachments : cover.jpg
Video
ID : 1
Format : AVC
Format/Info : Advanced Video Codec
Format profile : High@L3.1
Format settings : CABAC / 4 Ref Frames
Format settings, CABAC : Yes
Format settings, Reference : 4 frames
Codec ID : V_MPEG4/ISO/AVC
Duration : 1 h 58 min
Bit rate mode : Variable
Bit rate : 3 356 kb/s
Maximum bit rate : 6 375 kb/s
Width : 1 280 pixels
Height : 720 pixels
Display aspect ratio : 16:9
Frame rate mode : Constant
Frame rate : 23.976 (24000/1001) FPS
Color space : YUV
Chroma subsampling : 4:2:0
Bit depth : 8 bits
Scan type : Progressive
Bits/(Pixel*Frame) : 0.152
Stream size : 2.78 GiB (53%)
Title : Thor: Love and Thunder (2022).IMAX.WEB-DL.720p
Language : English
Default : Yes
Forced : No
Color range : Limited
Color primaries : BT.709
Transfer characteristics : BT.709
Matrix coefficients : BT.709
Audio #1
ID : 2
Format : AC-3
Format/Info : Audio Coding 3
Commercial name : Dolby Digital
Codec ID : A_AC3
Duration : 1 h 58 min
Bit rate mode : Constant
Bit rate : 448 kb/s
Channel(s) : 6 channels
Channel layout : L R C LFE Ls Rs
Sampling rate : 48.0 kHz
Frame rate : 31.250 FPS (1536 SPF)
Compression mode : Lossy
Stream size : 380 MiB (7%)
Title : Дубляж (Cinema Tone Production)
Language : Russian
Service kind : Complete Main
Default : Yes
Forced : No
Audio #2
ID : 3
Format : AC-3
Format/Info : Audio Coding 3
Commercial name : Dolby Digital
Codec ID : A_AC3
Duration : 1 h 58 min
Bit rate mode : Constant
Bit rate : 384 kb/s
Channel(s) : 6 channels
Channel layout : L R C LFE Ls Rs
Sampling rate : 48.0 kHz
Frame rate : 31.250 FPS (1536 SPF)
Compression mode : Lossy
Stream size : 326 MiB (6%)
Title : MVO (Jaskier)
Language : Russian
Service kind : Complete Main
Default : No
Forced : No
Audio #3
ID : 4
Format : E-AC-3
Format/Info : Enhanced AC-3
Commercial name : Dolby Digital Plus
Codec ID : A_EAC3
Duration : 1 h 58 min
Bit rate mode : Constant
Bit rate : 768 kb/s
Channel(s) : 6 channels
Channel layout : L R C LFE Ls Rs
Sampling rate : 48.0 kHz
Frame rate : 31.250 FPS (1536 SPF)
Compression mode : Lossy
Stream size : 652 MiB (12%)
Title : MVO (NewComers)
Language : Russian
Service kind : Complete Main
Default : No
Forced : No
Audio #4
ID : 5
Format : AC-3
Format/Info : Audio Coding 3
Commercial name : Dolby Digital
Codec ID : A_AC3
Duration : 1 h 58 min
Bit rate mode : Constant
Bit rate : 192 kb/s
Channel(s) : 2 channels
Channel layout : L R
Sampling rate : 48.0 kHz
Frame rate : 31.250 FPS (1536 SPF)
Compression mode : Lossy
Stream size : 163 MiB (3%)
Title : MVO (TVShows)
Language : Russian
Service kind : Complete Main
Default : No
Forced : No
Audio #5
ID : 6
Format : E-AC-3
Format/Info : Enhanced AC-3
Commercial name : Dolby Digital Plus
Codec ID : A_EAC3
Duration : 2 h 1 min
Bit rate mode : Constant
Bit rate : 256 kb/s
Channel(s) : 6 channels
Channel layout : L R C LFE Ls Rs
Sampling rate : 48.0 kHz
Frame rate : 31.250 FPS (1536 SPF)
Compression mode : Lossy
Stream size : 222 MiB (4%)
Title : Дубляж (LeDoyen)
Language : Ukrainian
Service kind : Complete Main
Default : No
Forced : No
Audio #6
ID : 7
Format : E-AC-3 JOC
Format/Info : Enhanced AC-3 with Joint Object Coding
Commercial name : Dolby Digital Plus with Dolby Atmos
Codec ID : A_EAC3
Duration : 1 h 58 min
Bit rate mode : Constant
Bit rate : 768 kb/s
Channel(s) : 6 channels
Channel layout : L R C LFE Ls Rs
Sampling rate : 48.0 kHz
Frame rate : 31.250 FPS (1536 SPF)
Compression mode : Lossy
Stream size : 652 MiB (12%)
Title : Original
Language : English
Service kind : Complete Main
Default : No
Forced : No
Complexity index : 16
Number of dynamic objects : 15
Bed channel count : 1 channel
Bed channel configuration : LFE
Audio #7
ID : 8
Format : AC-3
Format/Info : Audio Coding 3
Commercial name : Dolby Digital
Codec ID : A_AC3
Duration : 1 h 58 min
Bit rate mode : Constant
Bit rate : 192 kb/s
Channel(s) : 2 channels
Channel layout : L R
Sampling rate : 48.0 kHz
Frame rate : 31.250 FPS (1536 SPF)
Compression mode : Lossy
Stream size : 163 MiB (3%)
Title : Commentary by Writer / Director Taika Waititi
Language : English
Service kind : Complete Main
Default : No
Forced : No
Text #1
ID : 9
Format : UTF-8
Codec ID : S_TEXT/UTF8
Codec ID/Info : UTF-8 Plain Text
Duration : 1 h 43 min
Bit rate : 1 b/s
Frame rate : 0.003 FPS
Count of elements : 18
Stream size : 787 Bytes (0%)
Title : Форсированные
Language : Russian
Default : Yes
Forced : No
Text #2
ID : 10
Format : UTF-8
Codec ID : S_TEXT/UTF8
Codec ID/Info : UTF-8 Plain Text
Duration : 1 h 57 min
Bit rate : 82 b/s
Frame rate : 0.229 FPS
Count of elements : 1616
Stream size : 71.5 KiB (0%)
Title : Полные (License)
Language : Russian
Default : No
Forced : No
Text #3
ID : 11
Format : UTF-8
Codec ID : S_TEXT/UTF8
Codec ID/Info : UTF-8 Plain Text
Duration : 1 h 57 min
Bit rate : 94 b/s
Frame rate : 0.228 FPS
Count of elements : 1615
Stream size : 81.6 KiB (0%)
Title : Полные (Cool Story Blog)
Language : Russian
Default : No
Forced : No
Text #4
ID : 12
Format : UTF-8
Codec ID : S_TEXT/UTF8
Codec ID/Info : UTF-8 Plain Text
Duration : 1 h 43 min
Bit rate : 0 b/s
Frame rate : 0.002 FPS
Count of elements : 14
Stream size : 598 Bytes (0%)
Title : Форсированные
Language : Ukrainian
Default : No
Forced : No
Text #5
ID : 13
Format : UTF-8
Codec ID : S_TEXT/UTF8
Codec ID/Info : UTF-8 Plain Text
Duration : 1 h 57 min
Bit rate : 78 b/s
Frame rate : 0.229 FPS
Count of elements : 1616
Stream size : 67.4 KiB (0%)
Title : Полные
Language : Ukrainian
Default : No
Forced : No
Text #6
ID : 14
Format : UTF-8
Codec ID : S_TEXT/UTF8
Codec ID/Info : UTF-8 Plain Text
Duration : 1 h 57 min
Bit rate : 56 b/s
Frame rate : 0.255 FPS
Count of elements : 1800
Stream size : 48.8 KiB (0%)
Title : Full
Language : English
Default : No
Forced : No
Text #7
ID : 15
Format : UTF-8
Codec ID : S_TEXT/UTF8
Codec ID/Info : UTF-8 Plain Text
Duration : 1 h 58 min
Bit rate : 70 b/s
Frame rate : 0.321 FPS
Count of elements : 2281
Stream size : 61.0 KiB (0%)
Title : SDH
Language : English
Default : No
Forced : No
Text #8
ID : 16
Format : UTF-8
Codec ID : S_TEXT/UTF8
Codec ID/Info : UTF-8 Plain Text
Duration : 1 h 58 min
Bit rate : 98 b/s
Frame rate : 0.314 FPS
Count of elements : 2228
Stream size : 85.2 KiB (0%)
Title : Commentary by Writer / Director Taika Waititi
Language : English
Default : No
Forced : No
Menu
00:00:00.000 : en:Chapter 01
00:06:45.155 : en:Chapter 02
00:10:11.319 : en:Chapter 03
00:14:23.780 : en:Chapter 04
00:18:13.426 : en:Chapter 05
00:20:59.508 : en:Chapter 06
00:21:47.806 : en:Chapter 07
00:27:00.994 : en:Chapter 08
00:28:16.194 : en:Chapter 09
00:29:52.249 : en:Chapter 10
00:31:24.508 : en:Chapter 11
00:35:15.113 : en:Chapter 12
00:38:40.443 : en:Chapter 13
00:45:37.443 : en:Chapter 14
00:53:04.223 : en:Chapter 15
01:06:19.392 : en:Chapter 16
01:14:16.911 : en:Chapter 17
01:24:35.821 : en:Chapter 18
01:28:31.181 : en:Chapter 19
01:30:19.998 : en:Chapter 20
01:34:17.652 : en:Chapter 21
01:38:12.678 : en:Chapter 22
01:44:45.529 : en:Chapter 23
01:48:17.616 : en:Chapter 24
01:50:03.430 : en:Chapter 25
01:51:14.710 : en:Chapter 26
[Profile]  [PM] 
Display posts:    
Reply to topic

Current time is: 20-Jul 02:30

All times are UTC + 2



You cannot post new topics in this forum
You cannot reply to topics in this forum
You cannot edit your posts in this forum
You cannot delete your posts in this forum
You cannot vote in polls in this forum
You cannot attach files in this forum
You cannot download files in this forum