Росарио - Ножницы / Rosario Tijeras (Эмилио Маилле / Emilio Maillé) [2005, Колумбия, Мексика, Испания, Бразилия, драма, мелодрама, криминал, BDRip-AVC] MVO (Студия "Инис") + Sub Rus, Eng, Fra + Original Spa

Reply to topic
 
Author
Message

Wolf ®

Gender: Unknown

Longevity: 14 years

Posts: 3483

Reputation: 0 [+] [-]

Wolf · Post 16-Jun-2023 10:15

[Quote] 

Росарио - Ножницы
Rosario Tijeras

-
Страна: Колумбия, Мексика, Испания, Бразилия
Студия: CMO Producciones, Dulce Compania, Fondo de Inversión y Estímulos al Cine (FIDECINE)
Жанр: драма, мелодрама, криминал
Год выпуска: 2005
Продолжительность: 01:56:31
Перевод: Профессиональный (многоголосый закадровый) | Студия "Инис" // по заказу Синема Престиж
Субтитры: английские, русские, французские
Оригинальная аудиодорожка: испанский
Режиссер:
Эмилио Маилле / Emilio Maillé
В ролях:
Флора Мартинез, Унакс Угальде, Маноло Кардона, Родриго Овьедо, Алонсо Ариас, Алехандра Борреро, Алекс Кокс, Элиос Фернандес, Энрике Сарасола, Мария Тереса Гомес
Описание:
В ночном клубе два плейбоя, Эмилио и Антонио, знакомятся со сногсшибательной девушкой. У первого с ней сразу начинается роман, второй становится ей верным другом. Но однажды эта красавица недрогнувшей рукой убивает одного из завсегдатаев злачного заведения, посмевшего над ней посмеяться. С места преступления она скрывается вместе с друзьями, которым скоро предстоит узнать немало удивительного о жизни Росарио, в том числе и причину появления столь многозначительного прозвища – Ножницы.
-
|| IMDb || КиноПоиск || Скачать семпл || исходник для рипа BDRemux 1080p, за который спасибо porvaliparus ||
-

Гойя, 2006 год
Номинации:
- Лучший иностранный фильм на испанском языке — «Колумбия»
-
Качество видео: BDRip-AVC
Формат видео: MKV
Видео: MPEG-4 AVC, 4260 kbps, 1024x560 (1.85:1), 24.000 fps, 0.310 bit/pixel, High@L4.1
Аудио 1: 48 kHz, AC3 Dolby Digital, 3/2 (L,C,R,l,r) + LFE ch, ~384 kbps | Многоголосый закадровый (Студия "Инис")
Аудио 2: 48 kHz, AC3 Dolby Digital, 3/2 (L,C,R,l,r) + LFE ch, ~384 kbps | Испанский
Формат субтитров: softsub (SRT)

MediaInfo

avs [info]: 1024x560p 1:1 @ 24/1 fps (cfr)x264 [info]: using SAR=1/1x264 [info]: using cpu capabilities: MMX2 SSE2Fast SSSE3 SSE4.2 AVX FMA3 BMI2 AVX2x264 [info]: profile High, level 4.1, 4:2:0, 8-bitx264 [info]: frame I:984   Avg QP:18.24  size: 87691x264 [info]: frame P:32465 Avg QP:19.09  size: 42569x264 [info]: frame B:134349 Avg QP:21.89  size: 16783x264 [info]: consecutive B-frames:  1.1%  1.1%  6.5% 13.8% 13.4% 49.2%  5.9%  1.9%  4.3%  1.3%  1.6%x264 [info]: mb I  I16..4:  4.7% 81.3% 14.0%x264 [info]: mb P  I16..4:  1.7% 24.2%  1.7%  P16..4: 49.9% 13.7%  7.5%  0.0%  0.0%    skip: 1.3%x264 [info]: mb B  I16..4:  0.2%  2.5%  0.1%  B16..8: 45.0%  9.6%  3.3%  direct:11.5%  skip:27.8%  L0:44.8% L1:44.4% BI:10.8%x264 [info]: 8x8 transform intra:87.5% inter:62.9%x264 [info]: direct mvs  spatial:100.0% temporal:0.0%x264 [info]: coded y,uvDC,uvAC intra: 89.0% 90.6% 82.5% inter: 36.8% 36.4% 12.2%x264 [info]: i16 v,h,dc,p: 50% 20% 18% 13%x264 [info]: i8 v,h,dc,ddl,ddr,vr,hd,vl,hu:  8%  7% 14% 10% 13% 12% 12% 11% 13%x264 [info]: i4 v,h,dc,ddl,ddr,vr,hd,vl,hu:  8%  6%  6% 11% 15% 14% 13% 12% 14%x264 [info]: i8c dc,h,v,p: 53% 18% 16% 12%x264 [info]: Weighted P-Frames: Y:6.1% UV:3.4%x264 [info]: ref P L0: 35.5%  6.3% 17.1%  6.6%  7.9%  4.3%  5.1%  2.6%  3.2%  2.2%  2.7%  2.0%  2.4%  1.9%  0.1%  0.0%x264 [info]: ref B L0: 64.7% 11.7%  6.1%  3.7%  2.8%  2.7%  2.0%  1.6%  1.3%  1.3%  1.1%  0.8%  0.3%x264 [info]: ref B L1: 93.7%  6.3%x264 [info]: kb/s:4260.07encoded 167798 frames, 9.13 fps, 4260.07 kb/sFinal statistics===========================================GeneralUnique ID                                : 7269172665418480911386417670404913599 (0x577FDE21096957CAF4267B18E4739BF)Complete name                            : D:\Rosario-Nozhnicy.2005.Fra.Transfer.BDRip.AVC.mkvFormat                                   : MatroskaFormat version                           : Version 4File size                                : 4.09 GiBDuration                                 : 1 h 56 minOverall bit rate                         : 5 030 kb/sFrame rate                               : 24.000 FPSMovie name                               : Rosario-Nozhnicy.2005.Fra.Transfer.BDRip.AVC_vitolinformEncoded date                             : 2023-06-15 23:00:27 UTCWriting application                      : mkvmerge v76.0 ('Celebration') 64-bitWriting library                          : libebml v1.4.4 + libmatroska v1.7.1Attachments                              : poster.jpg / log.log
VideoID : 1Format : AVCFormat/Info : Advanced Video CodecFormat profile : High@L4.1Format settings : CABAC / 14 Ref FramesFormat settings, CABAC : YesFormat settings, Reference frames : 14 framesCodec ID : V_MPEG4/ISO/AVCDuration : 1 h 56 minBit rate : 4 260 kb/sWidth : 1 024 pixelsHeight : 560 pixelsDisplay aspect ratio : 1.85:1Frame rate mode : ConstantFrame rate : 24.000 FPSColor space : YUVChroma subsampling : 4:2:0Bit depth : 8 bitsScan type : ProgressiveBits/(Pixel*Frame) : 0.310Stream size : 3.47 GiB (85%)Title : Росарио - Ножницы / Rosario Tijeras (2005)Writing library : x264 core 164 r3107 a8b68ebEncoding settings : cabac=1 / ref=14 / deblock=1:-3:-3 / analyse=0x3:0x113 / me=umh / subme=10 / psy=1 / psy_rd=1.00:0.05 / mixed_ref=0 / me_range=32 / chroma_me=1 / trellis=2 / 8x8dct=1 / cqm=0 / deadzone=21,11 / fast_pskip=0 / chroma_qp_offset=-6 / threads=12 / lookahead_threads=3 / sliced_threads=0 / nr=0 / decimate=1 / interlaced=0 / bluray_compat=0 / constrained_intra=0 / bframes=10 / b_pyramid=2 / b_adapt=2 / b_bias=0 / direct=3 / weightb=1 / open_gop=0 / weightp=2 / keyint=240 / keyint_min=23 / scenecut=40 / intra_refresh=0 / rc_lookahead=40 / rc=crf / mbtree=0 / crf=19.0 / qcomp=0.60 / qpmin=0 / qpmax=69 / qpstep=4 / vbv_maxrate=50000 / vbv_bufsize=62500 / crf_max=0.0 / nal_hrd=none / filler=0 / ip_ratio=1.40 / pb_ratio=1.35 / aq=1:1.00Language : SpanishDefault : YesForced : NoColor range : LimitedColor primaries : BT.709Transfer characteristics : BT.709Matrix coefficients : BT.709
Audio #1ID : 2Format : AC-3Format/Info : Audio Coding 3Commercial name : Dolby DigitalCodec ID : A_AC3Duration : 1 h 56 minBit rate mode : ConstantBit rate : 384 kb/sChannel(s) : 6 channelsChannel layout : L R C LFE Ls RsSampling rate : 48.0 kHzFrame rate : 31.250 FPS (1536 SPF)Compression mode : LossyStream size : 320 MiB (8%)Title : MVO | Студия "Инис" по заказу Синема ПрестижLanguage : RussianService kind : Complete MainDefault : YesForced : No
Audio #2ID : 3Format : AC-3Format/Info : Audio Coding 3Commercial name : Dolby DigitalCodec ID : A_AC3Duration : 1 h 56 minBit rate mode : ConstantBit rate : 384 kb/sChannel(s) : 6 channelsChannel layout : L R C LFE Ls RsSampling rate : 48.0 kHzFrame rate : 31.250 FPS (1536 SPF)Compression mode : LossyStream size : 320 MiB (8%)Title : SpanishLanguage : SpanishService kind : Complete MainDefault : NoForced : No
Text #1ID : 4Format : UTF-8Codec ID : S_TEXT/UTF8Codec ID/Info : UTF-8 Plain TextDuration : 1 h 50 minBit rate : 48 b/sFrame rate : 0.100 FPSCount of elements : 664Stream size : 39.2 KiB (0%)Title : FullLanguage : RussianDefault : NoForced : No
Text #2ID : 5Format : UTF-8Codec ID : S_TEXT/UTF8Codec ID/Info : UTF-8 Plain TextDuration : 1 h 44 minBit rate : 27 b/sFrame rate : 0.122 FPSCount of elements : 766Stream size : 21.1 KiB (0%)Title : FullLanguage : EnglishDefault : NoForced : No
Text #3ID : 6Format : UTF-8Codec ID : S_TEXT/UTF8Codec ID/Info : UTF-8 Plain TextDuration : 1 h 54 minBit rate : 24 b/sFrame rate : 0.108 FPSCount of elements : 738Stream size : 20.3 KiB (0%)Title : FullLanguage : FrenchDefault : NoForced : No
Menu00:00:00.000 : en:Глава 0100:20:51.208 : en:Глава 0200:39:40.583 : en:Глава 0300:59:31.000 : en:Глава 0401:20:04.167 : en:Глава 0501:44:39.042 : en:Глава 06

Скриншоты

Сравнение

======BDRemux 1080p======================BDRip-AVC===



[Profile]  [PM] 
Display posts:    
Reply to topic

Current time is: 20-Jul 02:29

All times are UTC + 2



You cannot post new topics in this forum
You cannot reply to topics in this forum
You cannot edit your posts in this forum
You cannot delete your posts in this forum
You cannot vote in polls in this forum
You cannot attach files in this forum
You cannot download files in this forum