При чём тут любовь? / What\'s Love Got to Do with It? (Шекхар Капур / Shekhar Kapur) [2022, Великобритания, мелодрама, комедия, BDRemux 1080p] Dub (Мосфильм-Мастер) + Sub (Rus, Eng etc.) + Original Eng

Reply to topic
 
Author
Message

Faust ®

Gender: Unknown

Longevity: 12 years

Posts: 23187

Reputation: 0 [+] [-]

Faust · Post 16-Jun-2023 10:15

[Quote] 

При чём тут любовь?
What's Love Got to Do with It?

Страна: Великобритания
Жанр: Мелодрама, комедия
Год выпуска: 2022
Продолжительность: 01:49:09
Перевод: Профессиональный (дублированный) Мосфильм-Мастер
Субтитры: Русские (forced, full), английские, французские, немецкие, испанские
Оригинальная аудиодорожка: Aнглийский
Режиссер: Шекхар Капур / Shekhar Kapur
В ролях: Лили Джеймс, Шазад Латиф, Шабана Азми, Эмма Томпсон, Али Саял, Оливер Крис, Азим Чодри, Джефф Мирза, Иман Бужелуа, Пакиза Баиг
Описание: Лучшие друзья с детства Зои и Казим всегда одинаково относились к таким понятиям, как любовь и брак. Но вот Зои уже много лет не может найти свою настоящую любовь во всем Лондоне, в то время как Казим вдруг решает жениться на совершенно незнакомой девушке, выбранной его родителями. Озадаченная Зои отправляется вместе с ним в путешествие на его большую свадьбу, чтобы снять свой первый фильм и, главное, ответить на важнейший вопрос — а при чем тут любовь?

Тип релиза: BDRemux 1080p
Контейнер: MKV
Видео: MPEG-4 AVC, 1080p, 1920:1080 (16:9), 32990 kbps, 24.000 fps
Аудио 1: E-AC3, 6 ch, 48 kHz, 448 kbps Русский Dub Мосфильм-Мастер
Аудио 2: DTS-HD MA, 6 ch, 48 kHz, 3276 kbps, 24-bit (DTS Core 6 ch, 48 kHz, 1509 kbps, 24-bit) Английский
Формат субтитров: SRT

MediaInfo

GeneralUnique ID                                : 109583863686739893327829442978358093338 (0x5271159E7D14FD9708779C241E55E61A)Complete name                            : G:\Whats.Love.Got.to.Do.with.It.2022.REMUX.mkvFormat                                   : MatroskaFormat version                           : Version 4File size                                : 27.9 GiBDuration                                 : 1 h 49 minOverall bit rate mode                    : VariableOverall bit rate                         : 36.6 Mb/sEncoded date                             : UTC 2023-06-15 13:05:23Writing application                      : mkvmerge v20.0.0 ('I Am The Sun') 64-bitWriting library                          : libebml v1.3.5 + libmatroska v1.4.8
VideoID : 1Format : AVCFormat/Info : Advanced Video CodecFormat profile : High@L4.1Format settings : CABAC / 4 Ref FramesFormat settings, CABAC : YesFormat settings, Reference frames : 4 framesCodec ID : V_MPEG4/ISO/AVCDuration : 1 h 49 minBit rate mode : VariableBit rate : 32.9 Mb/sMaximum bit rate : 36.0 Mb/sWidth : 1 920 pixelsHeight : 1 080 pixelsDisplay aspect ratio : 16:9Frame rate mode : ConstantFrame rate : 24.000 FPSColor space : YUVChroma subsampling : 4:2:0Bit depth : 8 bitsScan type : ProgressiveBits/(Pixel*Frame) : 0.660Stream size : 25.0 GiB (90%)Language : EnglishDefault : YesForced : No
Audio #1ID : 2Format : E-AC-3Format/Info : Enhanced AC-3Commercial name : Dolby Digital PlusCodec ID : A_EAC3Duration : 1 h 48 minBit rate mode : ConstantBit rate : 448 kb/sChannel(s) : 6 channelsChannel layout : L R C LFE Ls RsSampling rate : 48.0 kHzFrame rate : 31.250 FPS (1536 SPF)Compression mode : LossyStream size : 349 MiB (1%)Title : Dub Мосфильм-МастерLanguage : RussianService kind : Complete MainDefault : YesForced : No
Audio #2ID : 3Format : DTS XLLFormat/Info : Digital Theater SystemsCommercial name : DTS-HD Master AudioCodec ID : A_DTSDuration : 1 h 49 minBit rate mode : VariableBit rate : 3 276 kb/sChannel(s) : 6 channelsChannel layout : C L R Ls Rs LFESampling rate : 48.0 kHzFrame rate : 93.750 FPS (512 SPF)Bit depth : 24 bitsCompression mode : LosslessStream size : 2.50 GiB (9%)Language : EnglishDefault : NoForced : No
Text #1ID : 4Format : UTF-8Codec ID : S_TEXT/UTF8Codec ID/Info : UTF-8 Plain TextDuration : 1 h 44 minBit rate : 3 b/sCount of elements : 50Stream size : 2.65 KiB (0%)Title : forcedLanguage : RussianDefault : YesForced : No
Text #2ID : 5Format : UTF-8Codec ID : S_TEXT/UTF8Codec ID/Info : UTF-8 Plain TextDuration : 1 h 22 minBit rate : 0 b/sCount of elements : 19Stream size : 579 Bytes (0%)Title : forcedLanguage : EnglishDefault : NoForced : No
Text #3ID : 6Format : UTF-8Codec ID : S_TEXT/UTF8Codec ID/Info : UTF-8 Plain TextDuration : 1 h 45 minBit rate : 104 b/sCount of elements : 1953Stream size : 80.8 KiB (0%)Language : RussianDefault : NoForced : No
Text #4ID : 7Format : UTF-8Codec ID : S_TEXT/UTF8Codec ID/Info : UTF-8 Plain TextDuration : 1 h 43 minBit rate : 71 b/sCount of elements : 1882Stream size : 54.1 KiB (0%)Language : EnglishDefault : NoForced : No
Text #5ID : 8Format : UTF-8Codec ID : S_TEXT/UTF8Codec ID/Info : UTF-8 Plain TextDuration : 1 h 47 minBit rate : 56 b/sCount of elements : 1552Stream size : 44.5 KiB (0%)Language : FrenchDefault : NoForced : No
Text #6ID : 9Format : UTF-8Codec ID : S_TEXT/UTF8Codec ID/Info : UTF-8 Plain TextDuration : 1 h 44 minBit rate : 63 b/sCount of elements : 1346Stream size : 48.5 KiB (0%)Language : GermanDefault : NoForced : No
Text #7ID : 10Format : UTF-8Codec ID : S_TEXT/UTF8Codec ID/Info : UTF-8 Plain TextDuration : 1 h 44 minBit rate : 77 b/sCount of elements : 1840Stream size : 59.6 KiB (0%)Language : SpanishDefault : NoForced : No
Menu00:00:00.000 : en:Chapter 100:09:44.041 : en:Chapter 200:19:24.958 : en:Chapter 300:30:20.541 : en:Chapter 400:40:45.583 : en:Chapter 500:50:11.208 : en:Chapter 601:00:38.291 : en:Chapter 701:11:29.291 : en:Chapter 801:23:47.541 : en:Chapter 901:33:31.041 : en:Chapter 1001:44:38.375 : en:Chapter 11

Скриншоты



[Profile]  [PM] 
Display posts:    
Reply to topic

Current time is: 20-Jul 02:28

All times are UTC + 2



You cannot post new topics in this forum
You cannot reply to topics in this forum
You cannot edit your posts in this forum
You cannot delete your posts in this forum
You cannot vote in polls in this forum
You cannot attach files in this forum
You cannot download files in this forum